Loading...
Error

Скачать Стрелок / Gunmen (Деран Сарафян / Deran Sarafian) [1993, боевик, триллер, комедия, криминал., DVDRip] [AVO] (Леонид Володарский) + [MVO] торрент без регистрации

 
Статистика раздачи
Размер:  1,3 GB   |    Скачан:  140 раз
Сидов:  1  [  0 KB/s  ]  
 
Автор Сообщение

leon030982

[] 

Стрелок / Gunmen


Год выпуска: 1993
Страна: США
Жанр: боевик, триллер, комедия, криминал.
Продолжительность: 01:32:40
Перевод 1: Авторский (одноголосный) [Леонид Володарский]
Перевод 2: Профессиональный (многолосый, закадровый)
Cубтитры: нет

Режиссер: Деран Сарафян / Deran Sarafian

В ролях: Кристофер Ламберт, Марио Ван Пиблз, Дэнис Лири, Патрик Стюарт, Кадим Хардисон, Сэлли Кёркленд, Ричард С. Сарафьян, Роберт Харпер, Бренда Бакки, Джеймс Чалк.

Описание: Карл Сервиго похищает 400 миллионов долларов — деньги крупного наркобарона Лумеса. Он прячет деньги в небольшой яхте и отправляется за своим братом Дени, сидящем в тюрьме, но люди Луиса находят и убивают Карла. В надежде найти деньги наркобарон отправляет своих людей на поиски Дени, который сбегает из тюрьмы. Дени Сервиго ищут все — и полиция, и бандиты, потому что только он может знать название яхты с деньгами.



Качество видео: DVDRip
Формат видео: AVI
Видео кодек: DivX
Аудио кодек: MP3
Видео: 704x512 (1.38:1), 25 fps, DivX Codec 5.x or 6.x ~1418 kbps avg, 0.16 bit/pixel
Аудио 1: 44.100 kHz, MPEG Layer 3, 2 ch, ~192.00 kbps avg (Володарский)
Аудио 2: 48 kHz, MPEG Layer 3, 2 ch, ~192.00 kbps avg (MVO)
Аудио 3: 48 kHz, MPEG Layer 3, 2 ch, ~192.00 kbps avg (original)
E:\INTERNET\Lujdi_s_Oruzhiem_volodarskii_KOtt97.avi
General
Complete name : E:\INTERNET\Lujdi_s_Oruzhiem_volodarskii_KOtt97.avi
Format : AVI
Format/Info : Audio Video Interleave
File size : 1.30 GiB
Duration : 1h 32mn
Overall bit rate : 2 016 Kbps
Movie name : Люди с оружием (1994)
Director : KOtt97
Genre : Action/Adventure
Writing application : VirtualDubMod 1.5.10.2 (build 2542/release)
Writing library : VirtualDubMod build 2542/release
Original source form/Name : Movie
Video #0
ID : 0
Format : MPEG-4 Visual
Format settings, BVOP : 1
Format settings, QPel : No
Format settings, GMC : No warppoints
Format settings, Matrix : Default (H.263)
Muxing mode : Packed bitstream
Codec ID : DX50
Codec ID/Hint : DivX 5
Duration : 1h 32mn
Bit rate : 1 421 Kbps
Width : 704 pixels
Height : 512 pixels
Display aspect ratio : 1.375
Frame rate : 25.000 fps
Color space : YUV
Chroma subsampling : 4:2:0
Bit depth : 8 bits
Scan type : Progressive
Compression mode : Lossy
Bits/(Pixel*Frame) : 0.158
Stream size : 942 MiB (70%)
Writing library : DivX 6.8.2 (UTC 2008-05-17)
Audio #1
ID : 1
Format : MPEG Audio
Format version : Version 1
Format profile : Layer 3
Mode : Joint stereo
Codec ID : 55
Codec ID/Hint : MP3
Duration : 1h 32mn
Bit rate mode : Constant
Bit rate : 192 Kbps
Channel(s) : 2 channels
Sampling rate : 44.1 KHz
Compression mode : Lossy
Stream size : 127 MiB (10%)
Alignment : Split accross interleaves
Interleave, duration : 40 ms (1.00 video frame)
Interleave, preload duration : 500 ms
Audio #2
ID : 2
Format : MPEG Audio
Format version : Version 1
Format profile : Layer 3
Mode : Joint stereo
Mode extension : MS Stereo
Codec ID : 55
Codec ID/Hint : MP3
Duration : 1h 32mn
Bit rate mode : Constant
Bit rate : 192 Kbps
Channel(s) : 2 channels
Sampling rate : 48.0 KHz
Compression mode : Lossy
Stream size : 127 MiB (10%)
Alignment : Aligned on interleaves
Interleave, duration : 40 ms (1.00 video frame)
Interleave, preload duration : 504 ms
Audio #3
ID : 3
Format : MPEG Audio
Format version : Version 1
Format profile : Layer 3
Mode : Joint stereo
Codec ID : 55
Codec ID/Hint : MP3
Duration : 1h 32mn
Bit rate mode : Constant
Bit rate : 192 Kbps
Channel(s) : 2 channels
Sampling rate : 48.0 KHz
Compression mode : Lossy
Stream size : 127 MiB (10%)
Alignment : Aligned on interleaves
Interleave, duration : 40 ms (1.00 video frame)
Interleave, preload duration : 504 ms



Скачать Стрелок.Gunmen.(Деран.Сарафян.Deran.Sarafian).[1993.боевик.триллер.комедия.криминал.DVDRip].[AVO].(Леонид.Володарский).+.[MVO].torrent без регистрации
Золото ЗОЛОТАЯ РАЗДАЧА! СКАЧАННОЕ НЕ ЗАСЧИТЫВАЕТСЯ! Золото
Дата: Зарегистрирован   [ Тип: внутренний ] Как тут cкачать?
MAGNET ссылка
MAGNET ссылка


Скачать .torrent

14 KB

Статус: проверено DHT
Скачан: торрент - 140 раз, раздача полностью - 29 раз
Размер: 1,3 GB
Оценка:  5 (Голосов: 1)
Поблагодарили: 2
Поделиться ссылкой на эту раздачу с друзьями:
В контактеFacebookОдноклассникиTwitterLivejournalМой МирLiveinternet
 

 
Показать сообщения:    


Вы не можете начинать темы
Вы не можете отвечать на сообщения
Вы не можете редактировать свои сообщения
Вы не можете удалять свои сообщения
Вы не можете голосовать в опросах
Вы не можете прикреплять файлы к сообщениям
Вы можете скачивать файлы