Loading...
Error

Скачать Место преступления: Нью-Йорк / CSI: NY (9х1-17 из 17) (Frederick E.O. Toye) [2012, детектив, триллер, драма, WEB-DLRip] DVO (Nikolas & Vernita) торрент без регистрации

 
Статистика раздачи
Размер:  7,71 GB   |    Скачан:  2192 раза

Полного источника не было: 21 минута

 
Автор Сообщение

МихаНЕзатор

[] 

Место преступления Нью-Йорк / CSI: NY


Год выпуска: 2012
Страна: США
Жанр: детектив,триллер, драма,
Продолжительность: 17 x 00:42:00
Перевод: Любительский двухголосый закадровый [Nikolas & Vernita]
Русские субтитры: нет
Субтитры: Отсутствуют
Режиссёр: Frederick E.O. Toye

В ролях: Гари Синис, Села Уорд, Кармин Джевинацо, Анна Белкнап, Хил Харпер, Эдди Кэхил
Описание: Продолжение сериала о работе криминалистов в Нью-Йорке. Над раскрытием преступлений работает команда детективов, вооружённых самыми последними разработками в различных областях науки и техники. Команду возглавляет детектив Мак Тэйлор, преданный своему делу специалист, который убеждён, что в преступлениях всё взаимосвязано и, если потянуть за едва видимую нить, можно распутать даже самый сложный клубок событий. Мак вместе с другими членами команды CSI ведет отчаянную борьбу против преступности в каменных джунглях Нью-Йорка.

Доп. информация: Озвучено поклонниками сериала [Nikolas & Vernita]
Релиз:



Качество: WEB-DLRip
Формат: AVI
Видео кодек: XviD
Аудио кодек: MP3
Video: 720x400 (1.80:1), 23.976 fps, XviD MPEG-4 ~1096 kbps avg, 0.16 bit/pixel
Audio #1: 44.1 kHz, MP3, 2 ch, ~192 kbps avg DVO
Audio #2: 44.1 kHz, MP3, 2 ch, ~192 kbps avg Original

За оформление спасибо Vernita , а за постер спасибо GilGrissom
General
Complete name : D:\Downloads\Torrent\CSI New York 9\CSI.New.York.S09E01.avi
Format : AVI
Format/Info : Audio Video Interleave
File size : 474 MiB
Duration : 44mn 20s
Overall bit rate : 1 495 Kbps
Writing application : VirtualDubMod 1.5.10.2 (build 2542/release)
Writing library : VirtualDubMod build 2542/release
Video
ID : 0
Format : MPEG-4 Visual
Format profile : Advanced Simple@L5
Format settings, BVOP : Yes
Format settings, QPel : No
Format settings, GMC : No warppoints
Format settings, Matrix : Default (H.263)
Muxing mode : Packed bitstream
Codec ID : XVID
Codec ID/Hint : XviD
Duration : 44mn 20s
Bit rate : 1 098 Kbps
Width : 720 pixels
Height : 400 pixels
Display aspect ratio : 16:9
Frame rate : 23.976 fps
Color space : YUV
Chroma subsampling : 4:2:0
Bit depth : 8 bits
Scan type : Progressive
Bits/(Pixel*Frame) : 0.159
Stream size : 348 MiB (73%)
Writing library : XviD 1.2.1 (UTC 2008-12-04)
Audio #1
ID : 1
Format : MPEG Audio
Format version : Version 1
Format profile : Layer 3
Mode : Joint stereo
Codec ID : 55
Codec ID/Hint : MP3
Duration : 44mn 17s
Bit rate mode : Constant
Bit rate : 192 Kbps
Channel(s) : 2 channels
Sampling rate : 44.1 KHz
Stream size : 60.7 MiB (13%)
Alignment : Aligned on interleaves
Interleave, duration : 42 ms (1.00 video frame)
Interleave, preload duration : 522 ms
Writing library : LAME3.96
Audio #2
ID : 2
Format : MPEG Audio
Format version : Version 1
Format profile : Layer 3
Mode : Joint stereo
Codec ID : 55
Codec ID/Hint : MP3
Duration : 44mn 20s
Bit rate mode : Constant
Bit rate : 192 Kbps
Channel(s) : 2 channels
Sampling rate : 44.1 KHz
Stream size : 60.8 MiB (13%)
Alignment : Aligned on interleaves
Interleave, duration : 42 ms (1.00 video frame)
Interleave, preload duration : 522 ms
Writing library : LAME3.96
При каждом добавлении создётся новый торрент. Чтобы начать докачку новой серии, пользователям необходимо сделать следующее:
(1) остановить скачивание,
(2) удалить старый торрент у себя из клиента (старые серии удалять не надо),
(3) скачать новый торрент и запустить его у себя в клиенте вместо старого, при этом указать клиенту путь в старую папку куда и должно происходить скачивание новых серий.
Ваш клиент при этом должен произвести хеширование (проверку) старой папки (если не производит сам - помогите ему сделать это), и будет докачивать только те серии которых у вас ещё нет. Старые серии при этом не удаляются, а продолжают раздаваться!
Eсли вы уже удалили старые серии, то предотвратить повторную закачку старых серий можно, снял галочку в соответсвующих местах при запуске нового торрента.



Скачать Место.преступления.Нью-Йорк.CSI.NY.(9х1-17.из.17).(Frederick.E.O.Toye).[2012.детектив.триллер.драма.WEB-DLRip].DVO.(Nikolas.&.Vernita).torrent без регистрации
Золото ЗОЛОТАЯ РАЗДАЧА! СКАЧАННОЕ НЕ ЗАСЧИТЫВАЕТСЯ! Золото
Дата: Зарегистрирован   [ Тип: внутренний ] Как тут cкачать?
MAGNET ссылка
MAGNET ссылка


Скачать .torrent

40 KB

Статус: проверено DHT
Скачан: торрент - 2192 раз, раздача полностью - 22 раз
Размер: 7,71 GB
Оценка:  5 (Голосов: 1)
Поблагодарили: 1
Поделиться ссылкой на эту раздачу с друзьями:
В контактеFacebookОдноклассникиTwitterLivejournalМой МирLiveinternet
 

 
Показать сообщения:    


Вы не можете начинать темы
Вы не можете отвечать на сообщения
Вы не можете редактировать свои сообщения
Вы не можете удалять свои сообщения
Вы не можете голосовать в опросах
Вы не можете прикреплять файлы к сообщениям
Вы можете скачивать файлы