Loading...
Error

Скачать Место преступления: Нью-Йорк / CSI: NY (9х1-17 из 17) (Роб Бэйли , Джеффри Дж. Хант, Энтони Хемингуэй ) [2012, боевик, триллер, WEB-DL 720p] DVO (Nikolas & Vernita) торрент без регистрации

 
Статистика раздачи
Размер:  23,44 GB   |    Скачан:  2577 раз

Полного источника не было: 23 минуты

 
Автор Сообщение

МихаНЕзатор

[] 

CSI: Место преступления Нью-Йорк (сериал 2004 – 2013)
CSI: NY
«How long does it take to get hooked on the latest CSI: hit? About a New York minute.»


Страна: США, Канада
Жанр: боевик, триллер, драма, криминал, детектив
Год выпуска: 2012 (9 сезон)
Продолжительность: ~00:44:00
Перевод: Любительский двухголосый закадровый (Nikolas & Vernita)
Режиссер: Роб Бэйли / Rob Bailey, Джеффри Дж. Хант / Jeffrey G. Hunt, Энтони Хемингуэй / Anthony Hemingway

В ролях: [Отныне и вовек, волею "Кинопоиска", пославшего "Рутрекер" по рефереру, фото артистов более недоступны] .
Гэри Синиз (Mac Taylor), Мелина Канакаредес (Stella Bonasera), Кармине Джовинаццо (Danny Messer), Хилл Харпер (Sheldon Hawkes), Анна Белкнап (Lindsay Monroe), Эдди Кехилл (Don Flack), А.Дж. Баккли (Adam Ross), Роберт Джой (Dr. Sid Hammerback), Сила Уорд (Jo Danville), Ванесса Ферлито (Aiden Burn), Эммануэль Вожье (Detective Jessica Angell), Клэр Форлани (Dr. Peyton Driscoll)

Описание: Здесь, так же, как в «городе грехов» Лас-Вегасе и на райском побережье Майами, работает непревзойдённая команда детективов, вооружённых самыми последними разработками в области раскрытия преступлений.
Команду возглавляет детектив Мэк МакТейлор, преданный своему делу специалист, который убеждён, что в преступлениях всё взаимосвязано и, если потянуть за едва видимую нить, можно распутать даже самый сложный клубок событий. Его напарник, детектив Стелла Бонасейра - настоящий фанат своего дела и мастер на все руки. Мэк и Стелла вместе с другими членами команды CSI ведут отчаянную борьбу против преступности в каменных джунглях Нью-Йорка.



Релиз:

Качество: WEB-DL 720p
Контейнер: MKV
Видео: AVC, 1280x720 (16:9), 3918 kbps, 23.976 fps, 0.177 bpp
Аудио #1: русский / AC3 / 2.0 / 48 kHz / 192 kbps / 16 bit |||
[b]Аудио #2:
английский / AC3 / 5.1 / 48 kHz / 384 kbps / 16 bit
General
Unique ID : 252331875257699078742720298422876100729 (0xBDD559F882ADB122B6D845ECAF65D879)
Complete name : ...\CSI_NY.S09.720p.WEB-DL.N&V\CSI_NY.S09E01.720p.WEB-DL.N&V.mkv
Format : Matroska
Format version : Version 2
File size : 1.42 GiB
Duration : 44mn 20s
Overall bit rate : 4 586 Kbps
Movie name : CSI NY S09E01 'Reignited'' by SPS
Encoded date : UTC 2012-10-10 20:12:55
Writing application : mkvmerge v5.8.0 ('No Sleep / Pillow') built on Sep 2 2012 15:37:04
Writing library : libebml v1.2.3 + libmatroska v1.3.0
Video
ID : 1
Format : AVC
Format/Info : Advanced Video Codec
Format profile : High@L3.1
Format settings, CABAC : No
Format settings, ReFrames : 2 frames
Codec ID : V_MPEG4/ISO/AVC
Duration : 44mn 20s
Bit rate : 3 919 Kbps
Width : 1 280 pixels
Height : 720 pixels
Display aspect ratio : 16:9
Frame rate : 23.976 fps
Color space : YUV
Chroma subsampling : 4:2:0
Bit depth : 8 bits
Scan type : Progressive
Bits/(Pixel*Frame) : 0.177
Stream size : 1.21 GiB (85%)
Title : CSI NY - Season 9, Episode 1: Reignited
Language : English
Default : Yes
Forced : No
Color primaries : BT.709-5, BT.1361, IEC 61966-2-4, SMPTE RP177
Transfer characteristics : BT.709-5, BT.1361
Matrix coefficients : BT.709-5, BT.1361, IEC 61966-2-4 709, SMPTE RP177
Audio #1
ID : 2
Format : AC-3
Format/Info : Audio Coding 3
Mode extension : CM (complete main)
Codec ID : A_AC3
Duration : 44mn 20s
Bit rate mode : Constant
Bit rate : 192 Kbps
Channel(s) : 2 channels
Channel positions : Front: L R
Sampling rate : 48.0 KHz
Bit depth : 16 bits
Compression mode : Lossy
Stream size : 60.9 MiB (4%)
Title : Nikolas & Vernita
Language : Russian
Default : Yes
Forced : No
Audio #2
ID : 3
Format : AC-3
Format/Info : Audio Coding 3
Mode extension : CM (complete main)
Codec ID : A_AC3
Duration : 44mn 20s
Bit rate mode : Constant
Bit rate : 384 Kbps
Channel(s) : 6 channels
Channel positions : Front: L C R, Side: L R, LFE
Sampling rate : 48.0 KHz
Bit depth : 16 bits
Compression mode : Lossy
Stream size : 122 MiB (8%)
Title : Dolby Digital 5.1 @ 384 kbps
Language : English
Default : No
Forced : No
Внимание! Раздача ведётся путём добавления новых серий; при каждом добавлении создётся новый торрент. Чтобы начать докачку новой серии, пользователям необходимо сделать следующее: (1) остановить скачивание, (2) удалить старый торрент у себя из клиента (старые серии удалять не надо), (3) скачать новый торрент и запустить его у себя в клиенте вместо старого, при этом указать клиенту путь в старую папку куда и должно происходить скачивание новых серий.
Ваш клиент при этом должен произвести хеширование (проверку) старой папки (если не производит сам - помогите ему сделать это), и будет докачивать только те серии которых у вас ещё нет. Старые серии при этом не удаляются, а продолжают раздаваться!
Eсли вы уже удалили старые серии, то предотвратить повторную закачку старых серий можно, отжав галочку в соответсвующих местах при запуске нового торрента.



Скачать Место.преступления.Нью-Йорк.CSI.NY.(9х1-17.из.17).(Роб.Бэйли.Джеффри.Дж.Хант.Энтони.Хемингуэй.).[2012.боевик.триллер.WEB-DL.720p].DVO.(Nikolas.&.Vernita).torrent без регистрации
Золото ЗОЛОТАЯ РАЗДАЧА! СКАЧАННОЕ НЕ ЗАСЧИТЫВАЕТСЯ! Золото
Дата: Зарегистрирован   [ Тип: внутренний ] Как тут cкачать?
MAGNET ссылка
MAGNET ссылка


Скачать .torrent

60 KB

Статус: проверено DHT
Скачан: торрент - 2577 раз, раздача полностью - 11 раз
Размер: 23,44 GB
Оценка:  - (Голосов: 0)
Поблагодарили: 0
Поделиться ссылкой на эту раздачу с друзьями:
В контактеFacebookОдноклассникиTwitterLivejournalМой МирLiveinternet
 

 
Показать сообщения:    


Вы не можете начинать темы
Вы не можете отвечать на сообщения
Вы не можете редактировать свои сообщения
Вы не можете удалять свои сообщения
Вы не можете голосовать в опросах
Вы не можете прикреплять файлы к сообщениям
Вы можете скачивать файлы