Loading...
Error

: - / CSI: Crime Scene Investigation (131-22 22) ( , . , ) [2012-2013, , , , HDTVRip] DVO (DreamRecords)

 
10,03 GB   |    :  159
1  [  0 KB/s  ]  
 

[] 

: - / CSI: Crime Scene Investigation


: 2012
:
: , ,
: ~00:45:00
: ( ) (DreamRecords)
:
: , . ,

: , , , , , , , , , , .
: - , . . . , . , C.S.I. , .

. :
: DreamRecords
:
:
:



: HDTVRip
: AVI
: XviD
: MP3
: 720x400, 23.976 fps, 1 295 Kbps, 0.187 bits/pixel
: MP3, 48 kHz, 2 ch, 192 kbps

:

Format : AVI
Format/Info : Audio Video Interleave
File size : 458 MiB
Duration : 42mn 52s
Overall bit rate : 1 495 Kbps
Writing application : VirtualDubModRus 1.5.10.2 (build 2542/release)
Writing library : VirtualDubMod build 2542/release
Video
ID : 0
Format : MPEG-4 Visual
Format profile : Advanced Simple@L5
Format settings, BVOP : 1
Format settings, QPel : No
Format settings, GMC : No warppoints
Format settings, Matrix : Default (MPEG)
Codec ID : XVID
Codec ID/Hint : XviD
Duration : 42mn 52s
Bit rate : 1 294 Kbps
Width : 720 pixels
Height : 400 pixels
Display aspect ratio : 16:9
Frame rate : 23.976 fps
Color space : YUV
Chroma subsampling : 4:2:0
Bit depth : 8 bits
Scan type : Progressive
Compression mode : Lossy
Bits/(Pixel*Frame) : 0.187
Stream size : 397 MiB (87%)
Writing library : XviD 64
Audio
ID : 1
Format : MPEG Audio
Format version : Version 1
Format profile : Layer 3
Mode : Joint stereo
Codec ID : 55
Codec ID/Hint : MP3
Duration : 42mn 52s
Bit rate mode : Constant
Bit rate : 192 Kbps
Channel(s) : 2 channels
Sampling rate : 48.0 KHz
Compression mode : Lossy
Stream size : 58.9 MiB (13%)
Alignment : Aligned on interleaves
Interleave, duration : 42 ms (1.00 video frame)
Interleave, preload duration : 504 ms

:

! ; . , :
(1) ,
(2) ( ),
(3) , .
() ( - ), . , !
E , , . , , .


22 ! !




..-.CSI.Crime.Scene.Investigation.(131-22..22).(......).[2012-2013....HDTVRip].DVO.(DreamRecords).torrent
  ! ! 
:   [ : ] c?
MAGNET
MAGNET


.torrent

28 KB

: DHT
: - 159 , - 56
: 10,03 GB
5 (: 3)
: 2
:
 FacebookTwitterLivejournal Liveinternet
 

 
: