Loading...
Error

: - / CSI: Crime Scene Investigation (13 1-22 22) ( , . , ) [2012, , , , HDTVRip] [720p] [DVO (DreamRecords)]+[Original] + Rus Subs

 
23,96 GB   |    :  2513
1  [  0 KB/s  ]  
 

[] 

: - / CSI: Crime Scene Investigation


: : -
: CSI: Crime Scene Investigation
: 2013
: , ,
: , . ,

: , , , , , , , , , ,

: - , . . . , . , C.S.I. , .

: ( ) - DreamRecords
: 22 ~ 00:45:00
: ,
:

:
: ,
:
:

:

: HDTVRip 720p
: MKV
: H.264
: 1280x720, 23.976 fps, 2500 Kbps
1: AC3, 48 KHz, 224 Kbps, 6ch - Rus
2: AC3, 48 KHz, 384 Kbps, 6ch - Eng

:

Format : Matroska
Format version : Version 2
File size : 991 MiB
Duration : 42mn 42s
Overall bit rate : 3 245 Kbps
Encoded date : UTC 2012-11-14 22:39:22
Writing application : mkvmerge v5.8.0 ('No Sleep / Pillow') built on Sep 2 2012 15:37:04
Writing library : libebml v1.2.3 + libmatroska v1.3.0
Video
ID : 1
Format : AVC
Format/Info : Advanced Video Codec
Format profile : High@L4.1
Format settings, CABAC : Yes
Format settings, ReFrames : 9 frames
Codec ID : V_MPEG4/ISO/AVC
Duration : 42mn 42s
Bit rate : 2 572 Kbps
Width : 1 280 pixels
Height : 720 pixels
Display aspect ratio : 16:9
Frame rate mode : Constant
Frame rate : 23.976 fps
Color space : YUV
Chroma subsampling : 4:2:0
Bit depth : 8 bits
Scan type : Progressive
Bits/(Pixel*Frame) : 0.116
Stream size : 786 MiB (79%)
Writing library : x264 core 128 r2216 198a7ea
Encoding settings : cabac=1 / ref=9 / deblock=1:-2:-2 / analyse=0x3:0x133 / me=umh / subme=10 / psy=1 / psy_rd=1.00:0.00 / mixed_ref=1 / me_range=32 / chroma_me=1 / trellis=2 / 8x8dct=1 / cqm=0 / deadzone=21,11 / fast_pskip=0 / chroma_qp_offset=-2 / threads=16 / lookahead_threads=2 / sliced_threads=0 / nr=0 / decimate=1 / interlaced=0 / bluray_compat=0 / constrained_intra=0 / bframes=5 / b_pyramid=2 / b_adapt=2 / b_bias=0 / direct=3 / weightb=1 / open_gop=0 / weightp=2 / keyint=250 / keyint_min=23 / scenecut=40 / intra_refresh=0 / rc_lookahead=60 / rc=crf / mbtree=1 / crf=18.0 / qcomp=0.60 / qpmin=0 / qpmax=69 / qpstep=4 / ip_ratio=1.40 / aq=1:1.00
Language : English
Default : Yes
Forced : No
Matrix coefficients : BT.709
Audio #1
ID : 2
Format : AC-3
Format/Info : Audio Coding 3
Mode extension : CM (complete main)
Format settings, Endianness : Big
Codec ID : A_AC3
Duration : 42mn 42s
Bit rate mode : Constant
Bit rate : 224 Kbps
Channel(s) : 2 channels
Channel positions : Front: L R
Sampling rate : 48.0 KHz
Bit depth : 16 bits
Compression mode : Lossy
Stream size : 68.4 MiB (7%)
Title : DreamRecords
Language : Russian
Default : Yes
Forced : No
Audio #2
ID : 3
Format : AC-3
Format/Info : Audio Coding 3
Mode extension : CM (complete main)
Format settings, Endianness : Big
Codec ID : A_AC3
Duration : 42mn 42s
Bit rate mode : Constant
Bit rate : 384 Kbps
Channel(s) : 2 channels
Channel positions : Front: L R
Sampling rate : 48.0 KHz
Bit depth : 16 bits
Compression mode : Lossy
Stream size : 117 MiB (12%)
Title : Original
Language : English
Default : No
Forced : No
Text
ID : 4
Format : UTF-8
Codec ID : S_TEXT/UTF8
Codec ID/Info : UTF-8 Plain Text
Title : Rus Sub
Language : Russian
Default : No
Forced : No

:

! ; . , :
(1) ,
(2) ( ),
(3) , .
() ( - ), . , !
E , , . , , .



..-.CSI.Crime.Scene.Investigation.(13.1-22..22).(......).[2012....HDTVRip].[720p].[DVO.(DreamRecords)]+[Original].+.Rus.Subs.torrent
  ! ! 
:   [ : ] c?
MAGNET
MAGNET


.torrent

63 KB

: DHT
: - 2513 , - 12
: 23,96 GB
- (: 0)
: 1
:
 FacebookTwitterLivejournal Liveinternet
 

 
: