Loading...
Error

Скачать Два мула для сестры Сары / Two Mules for Sister Sara (Дон Сигел) [1970, боевик, комедия, приключения, вестерн, военный, BDRip] [DVO]+[Sub] торрент без регистрации

 
Статистика раздачи
Размер:  1,56 GB   |    Скачан:  5329 раз
Сидов:  1  [  0 KB/s  ]  
 
Автор Сообщение

Marsianka

[] 

Название: Два мула для сестры Сары
Оригинальное название: Two Mules for Sister Sara
Год выпуска: 1970
Жанр: боевик, комедия, приключения, вестерн, военный
Выпущено: США, Мексика, Sanen Productions, Universal Pictures
Режиссер: Дон Сигел
В ролях: Ширли МакЛейн, Клинт Иствуд, Мануэл Фабрегас, Альберто Морин, Армандо Силвестри, Джон Келли, Энрике Лусеро, Дэвид Эстуардо, Ада Карраско, Панчо Кордова, Хосе Чавес, Хосе Анхел Эспиноса, Роса Фурман, Педро Гальван, Маргарито Луна, Ксавьер Марк, Хавьер Массе, Аврора Муньос, Ортенсия Сантовенья

О фильме: Вестерн о человеке без имени, охотнике за удачей, который помогает монахине избежать смертельных опасностей при переходе через мексиканскую пустыню. Она оказывается вовсе не той за кого себя выдаёт. В пути герои примыкают к повстанцам, и у них созревает план совместно захватить французский форт. Повстанцы борются за свободу, а наш герой преследует только одну цель золото



Качество: BDRip
Видео: XviD, 1574 Кбит/с, 720x304
Аудио: Русский, английский (AC3, 2 ch, 192 Кбит/с)
Размер: 1.56 ГБ
Продолжительность: 01:53:40
Перевод: Профессиональный двухголосый
Субтитры: Русские, английские (для слабослышащих)
Общее
Полное имя : E:VideoDva.mula.dlja.sestry.Sary.1970.XviD.BDRipDva.mula.dlja.sestry.Sary.1970.eng.SDH.srt
Размер файла : 186 Кбайт

Общее
Полное имя : E:VideoDva.mula.dlja.sestry.Sary.1970.XviD.BDRipDva.mula.dlja.sestry.Sary.1970.Original.eng.ac3
Формат : AC-3
Формат/Информация : Audio Coding 3
Размер файла : 156 Мбайт
Продолжительность : 1 ч. 53 м.
Режим общего битрейта : Постоянный
Общий поток : 192 Кбит/сек

Аудио
Формат : AC-3
Формат/Информация : Audio Coding 3
Расширение режима : CM (complete main)
Параметр Endianness формата : Big
Продолжительность : 1 ч. 53 м.
Вид битрейта : Постоянный
Битрейт : 192 Кбит/сек
Каналы : 2 канала
Расположение каналов : Front: L R
Частота : 48,0 КГц
Битовая глубина : 16 бит
Метод сжатия : С потерями
Размер потока : 156 Мбайт (100%)

Общее
Полное имя : E:VideoDva.mula.dlja.sestry.Sary.1970.XviD.BDRipDva.mula.dlja.sestry.Sary.1970.rus.srt
Размер файла : 149 Кбайт

Общее
Полное имя : E:VideoDva.mula.dlja.sestry.Sary.1970.XviD.BDRipDva.mula.dlja.sestry.Sary.1970.XviD.BDRip.avi
Формат : AVI
Формат/Информация : Audio Video Interleave
Размер файла : 1,41 Гбайт
Продолжительность : 1 ч. 53 м.
Общий поток : 1775 Кбит/сек
Программа кодирования : VirtualDubMod 1.5.10.2 (build 2540/release)
Библиотека кодирования : VirtualDubMod build 2540/release

Видео
Идентификатор : 0
Формат : MPEG-4 Visual
Профиль формата : Advanced Simple@L5
Параметр BVOP формата : 1
Параметр QPel формата : Нет
Параметр GMC формата : Без точки перехода
Параметр матрицы формата : Default (H.263)
Режим смешивания : Сжатый битовый поток
Идентификатор кодека : XVID
Идентификатор кодека/Подсказка : XviD
Продолжительность : 1 ч. 53 м.
Битрейт : 1574 Кбит/сек
Ширина : 720 пикселей
Высота : 304 пикселя
Соотношение сторон : 2,35:1
Частота кадров : 23,976 кадра/сек
Цветовое пространство : YUV
Субдискретизация насыщенности : 4:2:0
Битовая глубина : 8 бит
Тип развёртки : Прогрессивная
Метод сжатия : С потерями
Бит/(Пиксели*Кадры) : 0.300
Размер потока : 1,25 Гбайт (89%)
Библиотека кодирования : XviD 1.2.1 (UTC 2008-12-04)

Аудио
Идентификатор : 1
Формат : AC-3
Формат/Информация : Audio Coding 3
Расширение режима : CM (complete main)
Параметр Endianness формата : Big
Идентификатор кодека : 2000
Продолжительность : 1 ч. 53 м.
Вид битрейта : Постоянный
Битрейт : 192 Кбит/сек
Каналы : 2 канала
Расположение каналов : Front: L R
Частота : 48,0 КГц
Битовая глубина : 16 бит
Метод сжатия : С потерями
Размер потока : 156 Мбайт (11%)
Выравнивание : Разделение по промежуткам
Продолжительность промежутка : 42 мс. (1,00 видеокадр)
Время предзагрузки промежутка : 500 мс.



Скачать Два.мула.для.сестры.Сары.Two.Mules.for.Sister.Sara.(Дон.Сигел).[1970.боевик.комедия.приключения.вестерн.военный.BDRip].[DVO]+[Sub].torrent без регистрации
Золото ЗОЛОТАЯ РАЗДАЧА! СКАЧАННОЕ НЕ ЗАСЧИТЫВАЕТСЯ! Золото
Дата: Зарегистрирован   [ Тип: внутренний ] Как тут cкачать?
MAGNET ссылка
MAGNET ссылка


Скачать .torrent

16 KB

Статус: проверено DHT
Скачан: торрент - 5329 раз, раздача полностью - 12 раз
Размер: 1,56 GB
Оценка:  - (Голосов: 0)
Поблагодарили: 1
Поделиться ссылкой на эту раздачу с друзьями:
В контактеFacebookОдноклассникиTwitterLivejournalМой МирLiveinternet
 

 
Показать сообщения:    


Вы не можете начинать темы
Вы не можете отвечать на сообщения
Вы не можете редактировать свои сообщения
Вы не можете удалять свои сообщения
Вы не можете голосовать в опросах
Вы не можете прикреплять файлы к сообщениям
Вы можете скачивать файлы