Loading...
Error

Скачать Без компромиссов / Raw Deal (Джон Ирвин / John Irvin) [1986 г., Боевик, Триллер, Криминал, BDRip] [AVO] [А.Гаврилов] + [AVO] [Л.Володарский] торрент без регистрации

 
Статистика раздачи
Размер:  1,99 GB   |    Скачан:  142 раза
Сидов:  1  [  0 KB/s  ]  
 
Автор Сообщение

leon030982

[] 

Без компромиссов / Raw Deal


Год выпуска: 1986
Страна: США
Студия: De Laurentiis Entertainment Group (DEG), Famous Films N.V., International Film Corporation
Жанр: Боевик, Триллер, Криминал
Продолжительность: 01:45:36
Перевод 1: Авторский (одноголосный, закадровый) [А.Гаврилов]
Перевод 2: Авторский (одноголосный, закадровый) [Л.Володарский]

Режиссер: Джон Ирвин / John Irvin

В ролях: Арнольд Шварценеггер, Кэтрин Харольд, Даррен МакГейвин, Сэм Уонамейкер, Пол Шенар, Стивен Хилл, Джо Регалбуто, Роберт Дави, Эд Лотер, Мордекай Лоунер, Бланш Бэйкер, Луиз Роуби, Виктор Арго, Джордж П. Вилбур, Денвер Маттсон, Джон Маллой

Описание: Уволенный из ФБР за «чрезмерное применение силы» агент Марк Каминский работает шерифом в маленьком городке. Но когда понадобился человек, чтобы внедриться в чикагскую мафию, бывшее начальство Марка решило, что лучше него с этим заданием не справится никто.
Марку придется действовать без всякой поддержки местной полиции, ничего не знающей о его тайной миссии. Действуя в одиночку против целого гангстерского синдиката, Марк должен «взять» могущественного и жестокого главу чикагской организованной преступности.
В случае успеха Марка провозгласят героем и восстановят на службе. Не привыкший отступать перед опасностью, Марк охотно берется за дело. Он полон решимости «железной рукой» навести порядок в Чикаго…


КИНОПОИСК

Качество: BDRip
Формат: AVI
Видео кодек: XviD
Аудио кодек: AC3
Видео: 720x304 (2.37:1), 24.000 fps, XviD MPEG-4 ~2056 kbps avg, 0.39 bit/pixel
Аудио 1: 48 kHz, AC3 Dolby Digital, 3/2 (L,C,R,l,r) + LFE ch, ~448 kbps [А.Гаврилов]
Аудио 2: 48 kHz, AC3 Dolby Digital, 2 ch, ~192 kbps [Л.Володарский]
E:INTERNETБез компромиссов.1986.BDRip._2x[AVO].avi
General
Complete name : E:INTERNETБез компромиссов.1986.BDRip._2x[AVO].avi
Format : AVI
Format/Info : Audio Video Interleave
Format profile : OpenDML
File size : 1.99 GiB
Duration : 1h 45mn
Overall bit rate : 2 704 Kbps
Movie name : Без компромиссов / Raw Deal (1986)
Writing application : VirtualDubMod 1.5.10.3 (build 2550/release)
Writing library : VirtualDubMod build 2550/release
Comment : 04.08.2011
Video #0
ID : 0
Format : MPEG-4 Visual
Format profile : Advanced Simple@L5
Format settings, BVOP : 1
Format settings, QPel : No
Format settings, GMC : No warppoints
Format settings, Matrix : Custom
Codec ID : XVID
Codec ID/Hint : XviD
Duration : 1h 45mn
Bit rate : 2 046 Kbps
Width : 720 pixels
Height : 304 pixels
Display aspect ratio : 2.35:1
Frame rate : 24.000 fps
Color space : YUV
Chroma subsampling : 4:2:0
Bit depth : 8 bits
Scan type : Progressive
Compression mode : Lossy
Bits/(Pixel*Frame) : 0.389
Stream size : 1.51 GiB (76%)
Writing library : XviD 63
Audio #1
ID : 1
Format : AC-3
Format/Info : Audio Coding 3
Mode extension : CM (complete main)
Format settings, Endianness : Big
Codec ID : 2000
Duration : 1h 45mn
Bit rate mode : Constant
Bit rate : 448 Kbps
Channel(s) : 6 channels
Channel positions : Front: L C R, Side: L R, LFE
Sampling rate : 48.0 KHz
Bit depth : 16 bits
Compression mode : Lossy
Stream size : 338 MiB (17%)
Alignment : Split accross interleaves
Interleave, duration : 42 ms (1.00 video frame)
Interleave, preload duration : 500 ms
Audio #2
ID : 2
Format : AC-3
Format/Info : Audio Coding 3
Mode extension : CM (complete main)
Format settings, Endianness : Big
Codec ID : 2000
Duration : 1h 45mn
Bit rate mode : Constant
Bit rate : 192 Kbps
Channel(s) : 2 channels
Channel positions : Front: L R
Sampling rate : 48.0 KHz
Bit depth : 16 bits
Compression mode : Lossy
Stream size : 145 MiB (7%)
Alignment : Split accross interleaves
Interleave, duration : 42 ms (1.00 video frame)
Interleave, preload duration : 500 ms




Скачать Без.компромиссов.Raw.Deal.(Джон.Ирвин.John.Irvin).[1986.г.Боевик.Триллер.Криминал.BDRip].[AVO].[А.Гаврилов].+.[AVO].[Л.Володарский].torrent без регистрации
Золото ЗОЛОТАЯ РАЗДАЧА! СКАЧАННОЕ НЕ ЗАСЧИТЫВАЕТСЯ! Золото
Дата: Зарегистрирован   [ Тип: внутренний ] Как тут cкачать?
MAGNET ссылка
MAGNET ссылка


Скачать .torrent

20 KB

Статус: проверено DHT
Скачан: торрент - 142 раз, раздача полностью - 3 раз
Размер: 1,99 GB
Оценка:  5 (Голосов: 1)
Поблагодарили: 2
Поделиться ссылкой на эту раздачу с друзьями:
В контактеFacebookОдноклассникиTwitterLivejournalМой МирLiveinternet
 

 
Показать сообщения:    


Вы не можете начинать темы
Вы не можете отвечать на сообщения
Вы не можете редактировать свои сообщения
Вы не можете удалять свои сообщения
Вы не можете голосовать в опросах
Вы не можете прикреплять файлы к сообщениям
Вы можете скачивать файлы