Loading...
Error

Скачать (Dubstep,House,Club.Electro-House) DJ Vlad Kardash - [EP]Single[EP] [2013, MP3, VBR 192-320 kbps] торрент без регистрации

 
Статистика раздачи
Размер:  97 MB   |    Скачан:  138 раз
Сидов:  1  [  0 KB/s  ]  
 
Автор Сообщение

deadmauVlad

[] 


DJ Vlad Kardash - [EP]Single[EP]



Выпущено: Россия
Связь с автором :
1)http://promodj.com/DjVladKardash
2)vk.com/dj_horror_2012
3)http://vk.com/dj_vlad_kardash *Группа Вконтакте *
Жанр: Dubstep,House,Club.Electro-House
Год выпуска: 2013
Формат: MP3
Битрейт аудио: VBR 192-320 kbps
Продолжительность: 00:55:00


**********Авторские треки*********
1)DJ Vlad Kardash-Куку Епта
2)DJ Vlad Kardash - +100500 приколов
3)DJ Vlad Kardash - Bass Fucker(Demo)
4)DJ VLAD Kardash - Club Dance
5)DJ Vlad Kardash - Ecstasy (Original)
6)DJ Vlad Kardash - Выключай интернет
7)DJ Vlad Kardash-А может ты пи**р
***********Ремиксы***************

1)Bueno Clinic - Fall In Love ( Dj Vlad Kardash Remix)
2)Deadmau5 - Aural Psynapse ( DJ Vlad Kardash REMAKE)
3)DEADMAU5 Strode (DJ VLAD KARDASH REMIX)
4)Deadmau5 - Bleed (DJ Vlad kardash Voclal Edition)
5)Jasper Forks - River Flows in You (DJ Vlad Kardash Dubstep Remix)
6)Skrillex-Scary Monsters and nice splities( Dj Vlad Kardash & FEROMON PROJECT)Remix
7)SwedishHouseMafia - DontYouWorryChild( DJ Vlad Kardash ReMiX)
8)Tiesto vs Sneaky Sound System - I Will Be Here(DJ Vlad Kardash Remix)


Доп. информация:

Общее
Полное имя : C:\Users\User\Desktop\DJ VLAD KARDASH- Single 2013\Cover.jpg
Формат : JPEG
Размер файла : 147 Кбайт

Изображения
Формат : JPEG
Ширина : 500 пикселей
Высота : 500 пикселей
Цветовое пространство : YUV
Субдискретизация насыщенности : 4:2:0
Битовая глубина : 8 бит
Метод сжатия : С потерями
Размер потока : 147 Кбайт (100%)

Общее
Полное имя : C:\Users\User\Desktop\DJ VLAD KARDASH- Single 2013\Авторские треки (2013)\Cover.jpg
Формат : JPEG
Размер файла : 147 Кбайт

Изображения
Формат : JPEG
Ширина : 500 пикселей
Высота : 500 пикселей
Цветовое пространство : YUV
Субдискретизация насыщенности : 4:2:0
Битовая глубина : 8 бит
Метод сжатия : С потерями
Размер потока : 147 Кбайт (100%)

Общее
Полное имя : C:\Users\User\Desktop\DJ VLAD KARDASH- Single 2013\Авторские треки (2013)\D Vlad Kardash-Куку Епта (Dubstep_HardStep).mp3
Формат : MPEG Audio
Размер файла : 6,46 Мбайт
Продолжительность : 4 м. 36 с.
Режим общего битрейта : Постоянный
Общий поток : 192 Кбит/сек
Альбом : Dubstep 2013
Альбом/Исполнитель : Dj Vlad Kardash
Трек : Экспиремент
Трек/Положение : 3
Исполнитель : Dj Vlad Kardash
Композитор : Dj Vlad Kardash
Дирижёр : Dj_Vlad_Kardash
Кодирование произвёл : LAME in FL Studio 10
Издатель : Dj_Vlad_Kardash;
Жанр : Dubstep
Дата записи : 2013
Библиотека кодирования : LAME3.98.2
BPM : 140
Правообладатель : Dj Vlad Kardash
Обложка : Yes
Тип обложки : Cover (front)
MIME-тип обложки : image/jpg
URL : Vk.com/dj_horror_2012

Аудио
Формат : MPEG Audio
Версия формата : Version 1
Профиль формата : Layer 3
Режим : Joint stereo
Расширение режима : MS Stereo
Продолжительность : 4 м. 36 с.
Вид битрейта : Постоянный
Битрейт : 192 Кбит/сек
Каналы : 2 канала
Частота : 44,1 КГц
Метод сжатия : С потерями
Размер потока : 6,32 Мбайт (98%)
Библиотека кодирования : LAME3.98.2

Общее
Полное имя : C:\Users\User\Desktop\DJ VLAD KARDASH- Single 2013\Авторские треки (2013)\DJ Vlad Kardash - +100500 приколов.mp3
Формат : MPEG Audio
Размер файла : 4,25 Мбайт
Продолжительность : 4 м. 29 с.
Режим общего битрейта : Постоянный
Общий поток : 128 Кбит/сек
Альбом : Single 2013
Альбом/Исполнитель : DJ Vlad Kardash
Трек : +100500
Исполнитель : Dj_Vlad_Kardash
Композитор : DJ Vlad Kardash
Кодирование произвёл : LAME in FL Studio 10
Жанр : Dubstep
Дата записи : 2013
Библиотека кодирования : LAME3.98.4
BPM : 140
Правообладатель : DJ Vlad Kardash
Обложка : Yes
Тип обложки : Cover (front)
MIME-тип обложки : image/jpg
URL : vk.com/dj_horror_2012

Аудио
Формат : MPEG Audio
Версия формата : Version 1
Профиль формата : Layer 3
Режим : Joint stereo
Расширение режима : MS Stereo
Продолжительность : 4 м. 29 с.
Вид битрейта : Постоянный
Битрейт : 128 Кбит/сек
Каналы : 2 канала
Частота : 44,1 КГц
Метод сжатия : С потерями
Размер потока : 4,11 Мбайт (97%)
Библиотека кодирования : LAME3.98.4

Общее
Полное имя : C:\Users\User\Desktop\DJ VLAD KARDASH- Single 2013\Авторские треки (2013)\DJ Vlad Kardash - Bass Fucker(Demo).mp3
Формат : MPEG Audio
Размер файла : 1,21 Мбайт
Продолжительность : 46 с.
Режим общего битрейта : Постоянный
Общий поток : 192 Кбит/сек
Альбом : Single 2013
Альбом/Исполнитель : DJ Vlad Kardash
Трек : Bass Fucker
Исполнитель : DJ Vlad Kardash
Композитор : DJ Vlad Kardash
Кодирование произвёл : LAME in FL Studio 10
Жанр : Electro-House
Дата записи : 2013
Библиотека кодирования : LAME3.98.2
BPM : 130
Правообладатель : DJ Vlad Kardash
Обложка : Yes
Тип обложки : Cover (front)
MIME-тип обложки : image/jpg

Аудио
Формат : MPEG Audio
Версия формата : Version 1
Профиль формата : Layer 3
Режим : Joint stereo
Продолжительность : 46 с.
Вид битрейта : Постоянный
Битрейт : 192 Кбит/сек
Каналы : 2 канала
Частота : 44,1 КГц
Метод сжатия : С потерями
Размер потока : 1,06 Мбайт (88%)
Библиотека кодирования : LAME3.98.2

Общее
Полное имя : C:\Users\User\Desktop\DJ VLAD KARDASH- Single 2013\Авторские треки (2013)\DJ VLAD Kardash - Club Dance .mp3
Формат : MPEG Audio
Размер файла : 4,48 Мбайт
Продолжительность : 1 м. 53 с.
Режим общего битрейта : Постоянный
Общий поток : 320 Кбит/сек
Альбом : Single 2013
Альбом/Исполнитель : DJ VLAD Kardash
Трек : Club Dance
Исполнитель : DJ VLAD Kardash
Композитор : DJ VLAD Kardash
Дирижёр : DJ VLAD Kardash
Кодирование произвёл : LAME in FL Studio 10
Издатель : DJ VLAD Kardash
Жанр : Duch House
Дата записи : 2013
Библиотека кодирования : LAME3.98.4ЄЄЄЄЄЄЄЄЄЄ
BPM : 128
Правообладатель : DJ VLAD Kardash
Обложка : Yes
Тип обложки : Cover (front)
MIME-тип обложки : image/jpg
URL : http://vk.com/dj_horror_2012

Аудио
Формат : MPEG Audio
Версия формата : Version 1
Профиль формата : Layer 3
Режим : Joint stereo
Продолжительность : 1 м. 53 с.
Вид битрейта : Постоянный
Битрейт : 320 Кбит/сек
Каналы : 2 канала
Частота : 44,1 КГц
Метод сжатия : С потерями
Размер потока : 4,34 Мбайт (97%)
Библиотека кодирования : LAME3.98.4ЄЄЄЄЄЄЄЄЄЄ

Общее
Полное имя : C:\Users\User\Desktop\DJ VLAD KARDASH- Single 2013\Авторские треки (2013)\DJ Vlad Kardash - Ecstasy (Original).mp3
Формат : MPEG Audio
Размер файла : 2,44 Мбайт
Продолжительность : 1 м. 40 с.
Режим общего битрейта : Постоянный
Общий поток : 192 Кбит/сек
Альбом : Single 2013
Альбом/Исполнитель : DJ Vlad Kardash
Трек : Ecstasy
Исполнитель : DJ Vlad Kardash
Композитор : DJ Vlad Kardash
Кодирование произвёл : LAME in FL Studio 11
Жанр : Dubstep-House
Дата записи : 2013
Библиотека кодирования : LAME3.98.2
BPM : 140
Правообладатель : DJ Vlad Kardash
Обложка : Yes
Тип обложки : Cover (front)
MIME-тип обложки : image/jpg

Аудио
Формат : MPEG Audio
Версия формата : Version 1
Профиль формата : Layer 3
Режим : Joint stereo
Расширение режима : MS Stereo
Продолжительность : 1 м. 40 с.
Вид битрейта : Постоянный
Битрейт : 192 Кбит/сек
Каналы : 2 канала
Частота : 44,1 КГц
Метод сжатия : С потерями
Размер потока : 2,30 Мбайт (94%)
Библиотека кодирования : LAME3.98.2

Общее
Полное имя : C:\Users\User\Desktop\DJ VLAD KARDASH- Single 2013\Авторские треки (2013)\DJ Vlad Kardash - Выключай интернет (Hard Dubstep).mp3
Формат : MPEG Audio
Размер файла : 3,40 Мбайт
Продолжительность : 2 м. 22 с.
Режим общего битрейта : Постоянный
Общий поток : 192 Кбит/сек
Альбом : Single 2013
Альбом/Исполнитель : DJ Vlad Kardash
Часть/Положение : 2
Трек : Выключай интернет
Трек/Положение : 1
Трек/Всего : 2
Исполнитель : Dj Vlad Kardash
Композитор : Dj Vlad Kardash
Дирижёр : Dj Vlad Kardash
Кодирование произвёл : LAME in FL Studio 10
Издатель : DJ Vlad kardash
Жанр : Hard Dubstep
Дата записи : 2013
Библиотека кодирования : LAME3.98.2
BPM : 140
Правообладатель : DJ Vlad Kardash
Обложка : Yes
Тип обложки : Cover (front)
MIME-тип обложки : image/jpg
URL : vk.com/dj_horror_2012

Аудио
Формат : MPEG Audio
Версия формата : Version 1
Профиль формата : Layer 3
Режим : Joint stereo
Расширение режима : MS Stereo
Продолжительность : 2 м. 22 с.
Вид битрейта : Постоянный
Битрейт : 192 Кбит/сек
Каналы : 2 канала
Частота : 44,1 КГц
Метод сжатия : С потерями
Размер потока : 3,26 Мбайт (96%)
Библиотека кодирования : LAME3.98.2

Общее
Полное имя : C:\Users\User\Desktop\DJ VLAD KARDASH- Single 2013\Авторские треки (2013)\DJ Vlad Kardash-А может ты пидор .mp3
Формат : MPEG Audio
Размер файла : 5,28 Мбайт
Продолжительность : 4 м. 29 с.
Режим общего битрейта : Постоянный
Общий поток : 160 Кбит/сек
Альбом : Single 2013
Альбом/Исполнитель : DJ Vlad Kardash
Трек : А Может ты Пидор ?
Исполнитель : DJ Vlad Kardash
Композитор : DJ Vlad Kardash
Кодирование произвёл : LAME in FL Studio 10
Жанр : Dubstep
Дата записи : 2013
Библиотека кодирования : LAME3.98.4
BPM : 140
Правообладатель : DJ Vlad Kardash
Обложка : Yes
Тип обложки : Cover (front)
MIME-тип обложки : image/jpg
URL : vk.com/dj_horror_2012

Аудио
Формат : MPEG Audio
Версия формата : Version 1
Профиль формата : Layer 3
Режим : Joint stereo
Расширение режима : MS Stereo
Продолжительность : 4 м. 29 с.
Вид битрейта : Постоянный
Битрейт : 160 Кбит/сек
Каналы : 2 канала
Частота : 44,1 КГц
Метод сжатия : С потерями
Размер потока : 5,13 Мбайт (97%)
Библиотека кодирования : LAME3.98.4

Общее
Полное имя : C:\Users\User\Desktop\DJ VLAD KARDASH- Single 2013\Ремиксы\Bueno Clinic - Fall In Love ( Dj Vlad Kardash Remix) .mp3
Формат : MPEG Audio
Размер файла : 6,15 Мбайт
Продолжительность : 2 м. 37 с.
Режим общего битрейта : Постоянный
Общий поток : 320 Кбит/сек
Альбом : Single 2013
Альбом/Исполнитель : Dj Vlad Kardash
Трек : Fall In Love (Добавляйтесь я в контакте http://vk.com/dj_horror_2012) Буду рад всем !!!!!!!!!!!!!!!!!!!!
Исполнитель : Bueno Clinic & Dj Vlad Kardash
Композитор : Dj Vlad Kardash
Кодирование произвёл : LAME in FL Studio 10
Жанр : Club-House
Дата записи : Dj Vlad Kardash
Библиотека кодирования : LAME3.98.4ЄЄЄЄЄЄЄЄЄЄ
BPM : 128
Правообладатель : Dj Vlad Kardash
Обложка : Yes
Тип обложки : Cover (front)
MIME-тип обложки : image/jpg
URL : http://vk.com/dj_horror_2012

Аудио
Формат : MPEG Audio
Версия формата : Version 1
Профиль формата : Layer 3
Режим : Joint stereo
Продолжительность : 2 м. 37 с.
Вид битрейта : Постоянный
Битрейт : 320 Кбит/сек
Каналы : 2 канала
Частота : 44,1 КГц
Метод сжатия : С потерями
Размер потока : 6,01 Мбайт (98%)
Библиотека кодирования : LAME3.98.4ЄЄЄЄЄЄЄЄЄЄ

Общее
Полное имя : C:\Users\User\Desktop\DJ VLAD KARDASH- Single 2013\Ремиксы\Deadmau5 - Aural Psynapse ( DJ Vlad Kardash REMAKE).mp3
Формат : MPEG Audio
Размер файла : 16,0 Мбайт
Продолжительность : 6 м. 56 с.
Режим общего битрейта : Постоянный
Общий поток : 320 Кбит/сек
Альбом : Single 2013
Альбом/Исполнитель : DJ Vlad Kardash
Часть/Положение : 1
Трек : Deadmau5 - Aural Psynapse REMAKE ( DJ Vlad Kardash)
Трек/Положение : 1
Трек/Всего : 5
Исполнитель : DJ Vlad Kardash
Композитор : DJ Vlad Kardash
Кодирование произвёл : LAME in FL Studio 10
Жанр : Progressive House. Trance
Дата записи : 2013
Библиотека кодирования : LAME3.98.4ЄЄЄЄЄЄЄЄЄЄ
BPM : 128
Правообладатель : DJ Vlad Kardash
Обложка : Yes
Тип обложки : Cover (front)
MIME-тип обложки : image/jpg
Примечание : vk.com/dj_horror_2012
URL : vk.com/dj_horror_2012

Аудио
Формат : MPEG Audio
Версия формата : Version 1
Профиль формата : Layer 3
Режим : Joint stereo
Продолжительность : 6 м. 56 с.
Вид битрейта : Постоянный
Битрейт : 320 Кбит/сек
Каналы : 2 канала
Частота : 44,1 КГц
Метод сжатия : С потерями
Размер потока : 15,9 Мбайт (99%)
Библиотека кодирования : LAME3.98.4ЄЄЄЄЄЄЄЄЄЄ

Общее
Полное имя : C:\Users\User\Desktop\DJ VLAD KARDASH- Single 2013\Ремиксы\DEADMAU5 Strode (DJ VLAD KARDASH REMIX).mp3
Формат : MPEG Audio
Размер файла : 12,3 Мбайт
Продолжительность : 5 м. 17 с.
Режим общего битрейта : Постоянный
Общий поток : 320 Кбит/сек
Альбом : Single 2013
Альбом/Исполнитель : DJ VLAD KaRDASH
Трек : Strode (DJ VLAD KARDASH REMIX)
Исполнитель : Deadmau5
Композитор : Deadmau5
Кодирование произвёл : LAME in FL Studio 11
Жанр : House.Progressvise
Дата записи : 2013
Библиотека кодирования : LAME3.98.4
BPM : 128
Правообладатель : DJ VLAD KaRDASH & Deadmau5
Обложка : Yes
Тип обложки : Cover (front)
MIME-тип обложки : image/jpg
Текст песен : Спасибо что скачали мой ремикс
URL : vk.com/dj_horror_2012

Аудио
Формат : MPEG Audio
Версия формата : Version 1
Профиль формата : Layer 3
Режим : Joint stereo
Расширение режима : MS Stereo
Продолжительность : 5 м. 18 с.
Вид битрейта : Постоянный
Битрейт : 320 Кбит/сек
Каналы : 2 канала
Частота : 44,1 КГц
Метод сжатия : С потерями
Размер потока : 12,1 Мбайт (99%)
Библиотека кодирования : LAME3.98.4

Общее
Полное имя : C:\Users\User\Desktop\DJ VLAD KARDASH- Single 2013\Ремиксы\DJ Vlad Kardash & deadmau5 - Bleed (Voclal Edition).mp3
Формат : MPEG Audio
Размер файла : 4,96 Мбайт
Продолжительность : 2 м. 6 с.
Режим общего битрейта : Постоянный
Общий поток : 320 Кбит/сек
Альбом : Single 2013
Альбом/Исполнитель : DJ Vlad Kardash
Трек : Bleed (Vocla Edition)
Исполнитель : DJ Vlad Kardash & deadmau5
Композитор : DJ Vlad Kardash
Кодирование произвёл : LAME in FL Studio 10
Жанр : Club-House
Дата записи : 2013
Библиотека кодирования : LAME3.98.4ЄЄЄЄЄЄЄЄЄЄ
BPM : 127
Правообладатель : DJ Vlad Kardash
Обложка : Yes
Тип обложки : Cover (front)
MIME-тип обложки : image/jpg
Примечание : Dj Vlad Kardash Vk.com/dj_horror_2012
URL : Vk.com/dj_horror_2012

Аудио
Формат : MPEG Audio
Версия формата : Version 1
Профиль формата : Layer 3
Режим : Joint stereo
Продолжительность : 2 м. 6 с.
Вид битрейта : Постоянный
Битрейт : 320 Кбит/сек
Каналы : 2 канала
Частота : 44,1 КГц
Метод сжатия : С потерями
Размер потока : 4,81 Мбайт (97%)
Библиотека кодирования : LAME3.98.4ЄЄЄЄЄЄЄЄЄЄ

Общее
Полное имя : C:\Users\User\Desktop\DJ VLAD KARDASH- Single 2013\Ремиксы\Jasper Forks - River Flows in You (DJ Vlad Kardash Dubstep Remix) .mp3
Формат : MPEG Audio
Размер файла : 13,8 Мбайт
Продолжительность : 5 м. 56 с.
Режим общего битрейта : Постоянный
Общий поток : 320 Кбит/сек
Альбом : Single 2013
Альбом/Исполнитель : DJ Vlad Kardash
Трек : Jasper_Forks_-_River_Flows_in_You (DJ Vlad Kardash Dubstep Remix)
Исполнитель : DJ Vlad Kardash
Композитор : DJ Vlad Kardash
Кодирование произвёл : LAME in FL Studio 10
Жанр : Dubstep
Дата записи : 2013
Библиотека кодирования : LAME3.98.4ЄЄЄЄЄЄЄЄЄЄ
BPM : 127
Правообладатель : DJ Vlad Kardash
Обложка : Yes
Тип обложки : Cover (front)
MIME-тип обложки : image/jpg
Примечание : Vk.com/dj_horror_2012
URL : vk.com/dj_horror_2012

Аудио
Формат : MPEG Audio
Версия формата : Version 1
Профиль формата : Layer 3
Режим : Joint stereo
Продолжительность : 5 м. 57 с.
Вид битрейта : Постоянный
Битрейт : 320 Кбит/сек
Каналы : 2 канала
Частота : 44,1 КГц
Метод сжатия : С потерями
Размер потока : 13,6 Мбайт (99%)
Библиотека кодирования : LAME3.98.4ЄЄЄЄЄЄЄЄЄЄ

Общее
Полное имя : C:\Users\User\Desktop\DJ VLAD KARDASH- Single 2013\Ремиксы\Skrillex-Scary Monsters and nice splities( Dj Vlad Kardash & FEROMON PROJECT)Remix.mp3
Формат : MPEG Audio
Размер файла : 4,34 Мбайт
Продолжительность : 3 м. 39 с.
Режим общего битрейта : Постоянный
Общий поток : 160 Кбит/сек
Альбом : Single 2013
Альбом/Исполнитель : DJ Vlad Kardash
Трек : Scary_Monsters_and_nice_splities(DJ Vlad Kardash Remix)
Исполнитель : Skrillex
Композитор : Skrillex
Кодирование произвёл : LAME in FL Studio 10
Жанр : Dubstep
Дата записи : 2012
Библиотека кодирования : LAME
BPM : 128
Правообладатель : DJ Vlad Kardash
Обложка : Yes
Тип обложки : Cover (front)
MIME-тип обложки : image/jpg
URL : vk.com/dj_horror_2012

Аудио
Формат : MPEG Audio
Версия формата : Version 1
Профиль формата : Layer 3
Режим : Joint stereo
Продолжительность : 3 м. 39 с.
Вид битрейта : Постоянный
Битрейт : 160 Кбит/сек
Каналы : 2 канала
Частота : 44,1 КГц
Метод сжатия : С потерями
Размер потока : 4,19 Мбайт (97%)
Библиотека кодирования : LAME

Общее
Полное имя : C:\Users\User\Desktop\DJ VLAD KARDASH- Single 2013\Ремиксы\SwedishHouseMafia - DontYouWorryChild( DJ Vlad Kardash ReMiX 2013).mp3
Формат : MPEG Audio
Размер файла : 6,76 Мбайт
Продолжительность : 2 м. 53 с.
Режим общего битрейта : Постоянный
Общий поток : 320 Кбит/сек
Альбом : Single 2013
Альбом/Исполнитель : DJ Vlad Kardash
Трек : DontYouWorryChild(_DJ_Vlad_Kardash_ReMiX_2013)
Исполнитель : Swedish House Mafia
Композитор : DJ Vlad Kardash
Кодирование произвёл : LAME in FL Studio 10
Жанр : Dub.Progressive.House
Дата записи : 2013
Библиотека кодирования : LAME3.98.4
BPM : 128
Правообладатель : DJ Vlad Kardash
Обложка : Yes
Тип обложки : Cover (front)
MIME-тип обложки : image/jpg
URL : http://vk.com/dj_horror_2012

Аудио
Формат : MPEG Audio
Версия формата : Version 1
Профиль формата : Layer 3
Режим : Joint stereo
Продолжительность : 2 м. 53 с.
Вид битрейта : Постоянный
Битрейт : 320 Кбит/сек
Каналы : 2 канала
Частота : 44,1 КГц
Метод сжатия : С потерями
Размер потока : 6,62 Мбайт (98%)
Библиотека кодирования : LAME3.98.4

Общее
Полное имя : C:\Users\User\Desktop\DJ VLAD KARDASH- Single 2013\Ремиксы\Tiesto vs Sneaky Sound System - I Will Be Here(DJ Vlad Kardash Remix).mp3
Формат : MPEG Audio
Размер файла : 5,16 Мбайт
Продолжительность : 2 м. 11 с.
Режим общего битрейта : Постоянный
Общий поток : 320 Кбит/сек
Альбом : Single 2013
Альбом/Исполнитель : DJ Vlad Kardash
Трек : I Will Be Here
Исполнитель : Tiesto vs Sneaky Sound System
Исполнитель/Ссылка : vk.com/dj_horror_2012
Композитор : DJ Vlad Kardash
Дирижёр : DJ Vlad Kardash
Кодирование произвёл : LAME in FL Studio 11
Издатель : DJ Vlad Kardash
Жанр : Progressive,House
Дата записи : 2013
Библиотека кодирования : LAME3.98.4
BPM : 128
Правообладатель : DJ Vlad Kardash
Обложка : Yes
Тип обложки : Cover (front)
MIME-тип обложки : image/jpg
Примечание : Добавляйтесь в вконтакте !
URL : vk.com/dj_horror_2012

Аудио
Формат : MPEG Audio
Версия формата : Version 1
Профиль формата : Layer 3
Режим : Joint stereo
Продолжительность : 2 м. 11 с.
Вид битрейта : Постоянный
Битрейт : 320 Кбит/сек
Каналы : 2 канала
Частота : 44,1 КГц
Метод сжатия : С потерями
Размер потока : 5,01 Мбайт (97%)
Библиотека кодирования : LAME3.98.4





Скачать DJ.Vlad.Kardash.-.[EP]Single[EP].[2013.MP3.VBR.192-320.kbps].torrent без регистрации
Золото ЗОЛОТАЯ РАЗДАЧА! СКАЧАННОЕ НЕ ЗАСЧИТЫВАЕТСЯ! Золото
Дата: Зарегистрирован   [ Тип: внутренний ] Как тут cкачать?
MAGNET ссылка
MAGNET ссылка


Скачать .torrent

10 KB

Статус: проверено DHT
Скачан: торрент - 138 раз, раздача полностью - 76 раз
Размер: 97 MB
Оценка:  5 (Голосов: 1)
Поблагодарили: 1
Поделиться ссылкой на эту раздачу с друзьями:
В контактеFacebookОдноклассникиTwitterLivejournalМой МирLiveinternet
 

 
Показать сообщения:    


Вы не можете начинать темы
Вы не можете отвечать на сообщения
Вы не можете редактировать свои сообщения
Вы не можете удалять свои сообщения
Вы не можете голосовать в опросах
Вы не можете прикреплять файлы к сообщениям
Вы можете скачивать файлы