Loading...
Error

Скачать Преступления и проступки / Crimes and Misdemeanors (Вуди Аллен) [1989, драма, мелодрама, комедия, HDTVRip-AVC] [Dub]+[MVO]+[Оригинал]+[Sub] торрент без регистрации

 
Статистика раздачи
Размер:  1,45 GB   |    Скачан:  118 раз
Сидов:  1  [  0 KB/s  ]  
 
Автор Сообщение

Marsianka

[] 

Преступления и проступки / Crimes and Misdemeanors (1989) HDTVRip-AVC

Информация о фильме
Название: Преступления и проступки
Оригинальное название: Crimes and Misdemeanors
Год выхода: 1989
Жанр: драма, мелодрама, комедия
Режиссер: Вуди Аллен

В ролях: Билл Бернштейн, Мартин Ландау, Клэр Блум, Стефани Рот Хаберли, Грегг Эделмэн, Джордж Дж. Манос, Анжелика Хьюстон, Вуди Аллен, Дженни Николс, Джоанна Глисон, Алан Алда, Сэм Уотерстон, Миа Фэрроу, Джерри Орбах, Анна Бергер, Мартин С. Бергманн

О фильме: Преуспевающий доктор Розенталь должен быть доволен жизнью. У него есть большой и красивый дом, любящая жена, дети и много друзей. Но наслаждаться размеренным существованием ему мешает бывшая любовница Долорес, с которой он провел несколько чудесных месяцев. Она, почему то решила что он собирался оставить жену и жениться на ней.

Когда же ей стало ясно, что это не произойдет, она поступает так, как возможно поступила бы любая другая женщина письма и звонки, грозящие крахом семейному счастью и душевному благополучию. Понимая, что должны быть приняты эффективные меры, доктор обращается за помощью к своему брату мафиози, который знает, как решить проблему.



Страна: США
Продолжительность: 01:39:48
Перевод: Дублированный (Ваарус Видео), Профессиональный (многоголосый закадровый) НТВ+, Оригинал (Английский)

Файл
Кодек: x.264
Качество: HDTVRip-AVC
Видео: 1024x560 (1,85:1), 25 fps, 1509 kbps, 0.105 bit/pixel
Аудио #1: 48 kHz, AC3 Dolby Digital, 2 ch, ~192.00 kbps (Дубляж)
Аудио #2: 48 kHz, AC3 Dolby Digital, 2 ch, ~192.00 kbps (НТВ+)
Аудио #3: 48 kHz, AC3 Dolby Digital, 2 ch, ~192.00 kbps (Оригинал)
Субтитры: Английские (отключаемые)

&
Общее
Уникальный идентификатор : 175103898302332973073873069941832684502 (0x83BBC8BB8F62D9F7958C4F7760A613D6)
Полное имя : D:Crimes and Misdemeanors.1989.HDTVRip-AVC.mkv
Формат : Matroska
Версия формата : Version 4 / Version 2
Размер файла : 1,45 Гбайт
Продолжительность : 1 ч. 39 м.
Общий поток : 2086 Кбит/сек
Название фильма : Преступления и проступки / Crimes and Misdemeanors (1989) HDTVRip-AVC rip by Rulya74
Дата кодирования : UTC 2013-05-31 04:21:07
Программа кодирования : mkvmerge v6.2.0 ('Promised Land') built on Apr 28 2013 12:22:01
Библиотека кодирования : libebml v1.3.0 + libmatroska v1.4.0

Видео
Идентификатор : 1
Формат : AVC
Формат/Информация : Advanced Video Codec
Профиль формата : High@L4.1
Параметр CABAC формата : Да
Параметр ReFrames формата : 9 кадров
Идентификатор кодека : V_MPEG4/ISO/AVC
Продолжительность : 1 ч. 39 м.
Битрейт : 1509 Кбит/сек
Ширина : 1024 пикселя
Высота : 560 пикселей
Соотношение сторон : 1,85:1
Режим частоты кадров : Постоянный
Частота кадров : 25,000 кадров/сек
Цветовое пространство : YUV
Субдискретизация насыщенности : 4:2:0
Битовая глубина : 8 бит
Тип развёртки : Прогрессивная
Бит/(Пиксели*Кадры) : 0.105
Размер потока : 1,02 Гбайт (70%)
Библиотека кодирования : x264 core 133 r2334 a3ac64b
Настройки программы : cabac=1 / ref=9 / deblock=1:-2:-1 / analyse=0x3:0x113 / me=umh / subme=9 / psy=1 / psy_rd=1.16:0.04 / mixed_ref=1 / me_range=32 / chroma_me=1 / trellis=2 / 8x8dct=1 / cqm=0 / deadzone=21,11 / fast_pskip=0 / chroma_qp_offset=-3 / threads=4 / lookahead_threads=1 / sliced_threads=0 / nr=0 / decimate=1 / interlaced=0 / bluray_compat=0 / constrained_intra=0 / bframes=5 / b_pyramid=2 / b_adapt=2 / b_bias=0 / direct=3 / weightb=1 / open_gop=0 / weightp=0 / keyint=250 / keyint_min=23 / scenecut=40 / intra_refresh=0 / rc_lookahead=40 / rc=2pass / mbtree=0 / bitrate=1509 / ratetol=1.0 / qcomp=0.60 / qpmin=0 / qpmax=69 / qpstep=4 / cplxblur=20.0 / qblur=0.5 / vbv_maxrate=62500 / vbv_bufsize=78125 / nal_hrd=none / ip_ratio=1.40 / pb_ratio=1.30 / aq=2:1.00
Default : Да
Forced : Нет

Аудио #1
Идентификатор : 2
Формат : AC-3
Формат/Информация : Audio Coding 3
Расширение режима : CM (complete main)
Параметр Endianness формата : Big
Идентификатор кодека : A_AC3
Продолжительность : 1 ч. 39 м.
Вид битрейта : Постоянный
Битрейт : 192 Кбит/сек
Каналы : 2 канала
Расположение каналов : Front: L R
Частота : 48,0 КГц
Битовая глубина : 16 бит
Метод сжатия : С потерями
Размер потока : 137 Мбайт (9%)
Заголовок : Дублированный
Язык : Russian
Default : Да
Forced : Нет

Аудио #2
Идентификатор : 3
Формат : AC-3
Формат/Информация : Audio Coding 3
Расширение режима : CM (complete main)
Параметр Endianness формата : Big
Идентификатор кодека : A_AC3
Продолжительность : 1 ч. 39 м.
Вид битрейта : Постоянный
Битрейт : 192 Кбит/сек
Каналы : 2 канала
Расположение каналов : Front: L R
Частота : 48,0 КГц
Битовая глубина : 16 бит
Метод сжатия : С потерями
Размер потока : 137 Мбайт (9%)
Заголовок : Профессиональный (многоголосый закадровый) НТВ+
Язык : Russian
Default : Нет
Forced : Нет

Аудио #3
Идентификатор : 4
Формат : AC-3
Формат/Информация : Audio Coding 3
Расширение режима : CM (complete main)
Параметр Endianness формата : Big
Идентификатор кодека : A_AC3
Продолжительность : 1 ч. 39 м.
Вид битрейта : Постоянный
Битрейт : 192 Кбит/сек
Каналы : 2 канала
Расположение каналов : Front: L R
Частота : 48,0 КГц
Битовая глубина : 16 бит
Метод сжатия : С потерями
Размер потока : 137 Мбайт (9%)
Заголовок : Оригинал
Язык : English
Default : Нет
Forced : Нет

Текст
Идентификатор : 5
Формат : UTF-8
Идентификатор кодека : S_TEXT/UTF8
Идентификатор кодека/Информация : UTF-8 Plain Text
Язык : English
Default : Да
Forced : Нет



Скачать Преступления.и.проступки.Crimes.and.Misdemeanors.(Вуди.Аллен).[1989.драма.мелодрама.комедия.HDTVRip-AVC].[Dub]+[MVO]+[Оригинал]+[Sub].torrent без регистрации
Золото ЗОЛОТАЯ РАЗДАЧА! СКАЧАННОЕ НЕ ЗАСЧИТЫВАЕТСЯ! Золото
Дата: Зарегистрирован   [ Тип: внутренний ] Как тут cкачать?
MAGNET ссылка
MAGNET ссылка


Скачать .torrent

15 KB

Статус: проверено DHT
Скачан: торрент - 118 раз, раздача полностью - 9 раз
Размер: 1,45 GB
Оценка:  - (Голосов: 0)
Поблагодарили: 1
Поделиться ссылкой на эту раздачу с друзьями:
В контактеFacebookОдноклассникиTwitterLivejournalМой МирLiveinternet
 

 
Показать сообщения:    


Вы не можете начинать темы
Вы не можете отвечать на сообщения
Вы не можете редактировать свои сообщения
Вы не можете удалять свои сообщения
Вы не можете голосовать в опросах
Вы не можете прикреплять файлы к сообщениям
Вы можете скачивать файлы