Loading...
Error

Скачать Доспехи Бога / Armour of God / Long xiong hu di (Джеки Чан, Эрик Цан) [1986, боевик, комедия, приключения, BDRip-AVC] [Расширенная версия] [MVO] торрент без регистрации

 
Статистика раздачи
Размер:  1,64 GB   |    Скачан:  181 раз
Сидов:  1  [  0 KB/s  ]  
 
Автор Сообщение

Marsianka

[] 

Инфомация о фильме
Название: Доспехи Бога
Оригинальное название: Armour of God / Long xiong hu di
Год выхода: 1986
Жанр: боевик, комедия, приключения
Режиссер: Джеки Чан, Эрик Цан
В ролях: Джеки Чан, Алан Там, Розамунд Кван, Лола Форнер, Божидар Смилянич, Кен Бойл, Джон Ладальски, Роберт ОБрайэн, Борис Грегорич, Марсия Чишолм

О фильме

«Азиатский ястреб» - так назвали героя Джеки в Европе. Когда он похитил в Африке ритуальный меч, то не предполагал, что это начало опасных приключений. Оказывается, что меч - часть древних доспехов Бога, и если их уничтожить, то в мире будут править силы Ужаса и Зла.

Силы Зла, которые укрылись в неприступном монастыре, узнают, что у Джеки есть доступ к остальным доспехам. Они похищают девушку, которую любит Ястреб, и требуют выкупа.

Понимая, что одной ловкостью ему не справиться с полчищами бандитов, Джеки добровольно становится человеком - бомбой. Но этот козырь он приберег на самый крайний случай...








Выпущено: Гонконг, Югославия
Продолжительность: 01:37:55
Перевод: Профессиональный многоголосый закадровый, студия «Омикрон»


Файл
Формат: MKV
Качество: BDRip-AVC
Видео: MPEG4 AVC, 1024x576, 1750 Кбит/сек, 30 кадров/сек
Звук: AC3, 48,0 КГц, 640 Кбит/сек, 6 каналов
Субтитры: Нет


Общее
Уникальный идентификатор : 227463130200818651732466904721088291766 (0xAB1FCE2CB6C642E19BB3995AB13BA3B6)
Полное имя : D:Armour.of.God.1986.x264.BDRip(AVC).by.Тorrent-Хzona.mkv
Формат : Matroska
Версия формата : Version 2
Размер файла : 1,64 Гбайт
Продолжительность : 1 ч. 37 м.
Общий поток : 2392 Кбит/сек
Дата кодирования : UTC 2013-05-31 01:54:54
Программа кодирования : mkvmerge v6.1.0 ('Old Devil') built on Mar 4 2013 09:10:42
Библиотека кодирования : libebml v1.3.0 + libmatroska v1.4.0

Видео
Идентификатор : 1
Формат : AVC
Формат/Информация : Advanced Video Codec
Профиль формата : High@L4.1
Параметр CABAC формата : Да
Параметр ReFrames формата : 5 кадров
Идентификатор кодека : V_MPEG4/ISO/AVC
Продолжительность : 1 ч. 37 м.
Битрейт : 1750 Кбит/сек
Ширина : 1024 пикселя
Высота : 576 пикселей
Соотношение сторон : 16:9
Режим частоты кадров : Постоянный
Частота кадров : 29,970 кадров/сек
Цветовое пространство : YUV
Субдискретизация насыщенности : 4:2:0
Битовая глубина : 8 бит
Тип развёртки : Прогрессивная
Бит/(Пиксели*Кадры) : 0.099
Размер потока : 1,17 Гбайт (71%)
Библиотека кодирования : x264 core 130 r2273 b3065e6
Настройки программы : cabac=1 / ref=5 / deblock=1:-2:-2 / analyse=0x3:0x111 / me=umh / subme=9 / psy=1 / psy_rd=0.00:0.10 / mixed_ref=1 / me_range=32 / chroma_me=1 / trellis=2 / 8x8dct=1 / cqm=0 / deadzone=21,11 / fast_pskip=0 / chroma_qp_offset=-1 / threads=4 / lookahead_threads=1 / sliced_threads=0 / nr=0 / decimate=1 / interlaced=0 / bluray_compat=0 / constrained_intra=0 / bframes=5 / b_pyramid=2 / b_adapt=0 / b_bias=0 / direct=1 / weightb=1 / open_gop=0 / weightp=2 / keyint=250 / keyint_min=25 / scenecut=40 / intra_refresh=0 / rc_lookahead=50 / rc=2pass / mbtree=1 / bitrate=1750 / ratetol=1.0 / qcomp=0.60 / qpmin=0 / qpmax=69 / qpstep=4 / cplxblur=20.0 / qblur=0.5 / ip_ratio=1.40 / aq=1:1.00
Default : Да
Forced : Нет

Аудио
Идентификатор : 2
Формат : AC-3
Формат/Информация : Audio Coding 3
Расширение режима : CM (complete main)
Параметр Endianness формата : Big
Идентификатор кодека : A_AC3
Продолжительность : 1 ч. 37 м.
Вид битрейта : Постоянный
Битрейт : 640 Кбит/сек
Каналы : 6 каналов
Расположение каналов : Front: L C R, Side: L R, LFE
Частота : 48,0 КГц
Битовая глубина : 16 бит
Метод сжатия : С потерями
Размер потока : 448 Мбайт (27%)
Default : Да
Forced : Нет
Релиз от: &



Скачать Доспехи.Бога.Armour.of.God.Long.xiong.hu.di.(Джеки.Чан.Эрик.Цан).[1986.боевик.комедия.приключения.BDRip-AVC].[Расширенная.версия].[MVO].torrent без регистрации
Золото ЗОЛОТАЯ РАЗДАЧА! СКАЧАННОЕ НЕ ЗАСЧИТЫВАЕТСЯ! Золото
Дата: Зарегистрирован   [ Тип: внутренний ] Как тут cкачать?
MAGNET ссылка
MAGNET ссылка


Скачать .torrent

17 KB

Статус: проверено DHT
Скачан: торрент - 181 раз, раздача полностью - 46 раз
Размер: 1,64 GB
Оценка:  5 (Голосов: 2)
Поблагодарили: 4
Поделиться ссылкой на эту раздачу с друзьями:
В контактеFacebookОдноклассникиTwitterLivejournalМой МирLiveinternet
 

 
Показать сообщения:    


Вы не можете начинать темы
Вы не можете отвечать на сообщения
Вы не можете редактировать свои сообщения
Вы не можете удалять свои сообщения
Вы не можете голосовать в опросах
Вы не можете прикреплять файлы к сообщениям
Вы можете скачивать файлы