Loading...
Error

Скачать Дальнобой без тормозов / Супербайкеры / Свободная птица / Freebird (Джон Айвэй) [2008, комедия, HDRip] [MVO] торрент без регистрации

 
Статистика раздачи
Размер:  1,45 GB   |    Скачан:  118 раз
Сидов:  1  [  0 KB/s  ]  
 
Автор Сообщение

МихаНЕзатор

[] 

Дальнобой без тормозов / Супербайкеры / Свободная птица / Freebird

Страна: Великобритания
Жанр: комедия
Год выпуска: 2008
Продолжительность: 01:33:30
Перевод: Профессиональный (многоголосый закадровый) "СТУДИЯ ШПИЛЬ-ГРУПП"
Cубтитры: нет
Оригинальная аудиодорожка: нет

Режиссер: Джон Айвэй / Jon Ivay

В ролях: Алун ап Бринли, Джофф Белл, Питер Боулз, Фил Дэниелс, Гвенллиан Дэвис, Маркус Гилберт, Джонатан Холмс, Кэролайн Ханнисетт, Джон Айвэй, Хагги Ливер

Описание: Трое английских раздолбаев байкеров отправляются по просьбе своего старого друга привезти отменной травы, выращиваемой одним хиппи в глубине лесов Уэльса.
Один уикэнд в Уэльсе, нарко-сделка на ферме и две враждующие банды... Может что-то пошло не так, как надо? Наполнив себя "травкой" и алкоголем, они вновь наслаждаются кемпингом и игрой на воображаемой гитаре, и одновременно с этим пытаются предотвратить войну за переделку территории.

Качество видео: HDRip
Формат видео: AVI
Видео: XviD, 704x304, 1831 Kbps, 23.976 fps
Аудио: AC3, 48000 Hz, 384 Kbps, 5.1 channels


Format : AVI
Format/Info : Audio Video Interleave
File size : 1.45 GiB
Duration : 1h 33mn
Overall bit rate : 2 224 Kbps
Writing application : VirtualDubMod 1.5.10.3 | www.virtualdub-fr.org || (build 2550/release)
Writing library : VirtualDubMod build 2550/release

Video
ID : 0
Format : MPEG-4 Visual
Format profile : Advanced Simple@L5
Format settings, BVOP : 1
Format settings, QPel : No
Format settings, GMC : No warppoints
Format settings, Matrix : Custom
Codec ID : XVID
Codec ID/Hint : XviD
Duration : 1h 33mn
Bit rate : 1 831 Kbps
Width : 704 pixels
Height : 304 pixels
Display aspect ratio : 2.35:1
Frame rate : 23.976 fps
Color space : YUV
Chroma subsampling : 4:2:0
Bit depth : 8 bits
Scan type : Progressive
Compression mode : Lossy
Bits/(Pixel*Frame) : 0.357
Stream size : 1.20 GiB (82%)
Writing library : XviD 73

Audio
ID : 1
Format : AC-3
Format/Info : Audio Coding 3
Mode extension : CM (complete main)
Format settings, Endianness : Big
Codec ID : 2000
Duration : 1h 33mn
Bit rate mode : Constant
Bit rate : 384 Kbps
Channel(s) : 6 channels
Channel positions : Front: L C R, Side: L R, LFE
Sampling rate : 48.0 KHz
Bit depth : 16 bits
Compression mode : Lossy
Stream size : 257 MiB (17%)
Alignment : Split accross interleaves
Interleave, duration : 42 ms (1.00 video frame)
Interleave, preload duration : 500 ms



Скачать Дальнобой.без.тормозов.Супербайкеры.Свободная.птица.Freebird.(Джон.Айвэй).[2008.комедия.HDRip].[MVO].torrent без регистрации
Золото ЗОЛОТАЯ РАЗДАЧА! СКАЧАННОЕ НЕ ЗАСЧИТЫВАЕТСЯ! Золото
Дата: Зарегистрирован   [ Тип: внутренний ] Как тут cкачать?
MAGNET ссылка
MAGNET ссылка


Скачать .torrent

15 KB

Статус: проверено DHT
Скачан: торрент - 118 раз, раздача полностью - 22 раз
Размер: 1,45 GB
Оценка:  - (Голосов: 0)
Поблагодарили: 0
Поделиться ссылкой на эту раздачу с друзьями:
В контактеFacebookОдноклассникиTwitterLivejournalМой МирLiveinternet
 

 
Показать сообщения:    


Вы не можете начинать темы
Вы не можете отвечать на сообщения
Вы не можете редактировать свои сообщения
Вы не можете удалять свои сообщения
Вы не можете голосовать в опросах
Вы не можете прикреплять файлы к сообщениям
Вы можете скачивать файлы