Loading...
Error

Скачать Снайпер / Sun cheung sau (Данте Лам) [2009, боевик, триллер, драма, криминал, приключения, HDRip AVC] [MVO] торрент без регистрации

 
Статистика раздачи
Размер:  2,17 GB   |    Скачан:  135 раз
Сидов:  1  [  0 KB/s  ]  
 
Автор Сообщение

МихаНЕзатор

[] 

Снайпер / Sun cheung sau


Год выпуска: 2009
Страна: Гонконг
Жанр: боевик, триллер, драма, криминал, приключения
Продолжительность: 01:26:30
Перевод: Профессиональный (многоголосый, закадровый)

Режиссер: Данте Лам / Dante Lam
Сценарий: Вэй Лун ЭнДжи / Wai Lun Ng, Данте Лам / Dante Lam
Продюсер: Кэнди Люн / Candy Leung, Джон Чонг / John Chong, Джанет Чун / Janet Chun, Лоррэйн Хо / Lorraine Ho, Стефен Лам / Stephen Lam
Оператор: Мэн По Чунг / Man Po Cheung

В ролях: Ричи Рен (Hartman, (Fang Keming)), Хуан Сяомин (Lincoln, (Jing / Ching)), Эдисон Чен (OJ, (Chen Xinwei)), Боуи Лам (Shane, (Shan Ge)), Лью Кай Чи (Big Head, (Er Ge)), Джек Као (Tao), Уилфред Лау (Iceman), Манго Вонг (Crystal), Мишель Йе (Mon), Чармэйн Фонг (Kit), Патрик Танг (Chung), Лоуренс Ах Мон (Superintendent)

Описание: Минг известен как лучший стрелок в полиции. Но за легендой скрыт скелет в шкафу: его бывшего коллегу и суперметкого Чина, который был заключен в тюрьму за случайное убийство заложника, освобождают. И только месть по его мнению, способна наказать Минга и полицию, полагая, что они являются подлинными виновниками всех его проблем.



Качество: HDRip_AVC
Контейнер: MKV
Видео: AVC, 1024x432, 3400 Кбит/сек, 24,000 кадра/сек
Аудио 1: русский, AC-3, 192 Кбит/сек, 2 канала, 48,0 КГц

Релиз от: Автор рипа:
Общее
Уникальный идентификатор : 218342424836952577550512504431503398136 (0xA44338AE7AFFD63B93C1F28F690AD4F8)
Полное имя : D:Sun.cheung.sau.2009.HDRip_AVC.Time_bandit.x264.mkv
Формат : Matroska
Версия формата : Version 2
Размер файла : 2,17 Гбайт
Продолжительность : 1 ч. 26 м.
Общий поток : 3593 Кбит/сек
Дата кодирования : UTC 2013-06-01 16:25:09
Программа кодирования : mkvmerge v6.1.0 ('Old Devil') built on Mar 4 2013 09:10:42
Библиотека кодирования : libebml v1.3.0 + libmatroska v1.4.0

Видео
Идентификатор : 1
Формат : AVC
Формат/Информация : Advanced Video Codec
Профиль формата : High@L4.1
Параметр CABAC формата : Да
Параметр ReFrames формата : 8 кадров
Идентификатор кодека : V_MPEG4/ISO/AVC
Продолжительность : 1 ч. 26 м.
Битрейт : 3400 Кбит/сек
Ширина : 1024 пикселя
Высота : 432 пикселя
Соотношение сторон : 2,40:1
Режим частоты кадров : Постоянный
Частота кадров : 24,000 кадра/сек
Цветовое пространство : YUV
Субдискретизация насыщенности : 4:2:0
Битовая глубина : 8 бит
Тип развёртки : Прогрессивная
Бит/(Пиксели*Кадры) : 0.320
Размер потока : 2,01 Гбайт (93%)
Библиотека кодирования : x264 core 130 r2273 b3065e6
Настройки программы : cabac=1 / ref=8 / deblock=1:-1:-1 / analyse=0x1:0x131 / me=umh / subme=9 / psy=1 / psy_rd=1.00:0.10 / mixed_ref=1 / me_range=16 / chroma_me=1 / trellis=2 / 8x8dct=0 / cqm=0 / deadzone=21,11 / fast_pskip=1 / chroma_qp_offset=-3 / threads=6 / lookahead_threads=1 / sliced_threads=0 / nr=0 / decimate=1 / interlaced=0 / bluray_compat=0 / constrained_intra=0 / bframes=8 / b_pyramid=2 / b_adapt=2 / b_bias=0 / direct=3 / weightb=1 / open_gop=0 / weightp=2 / keyint=250 / keyint_min=23 / scenecut=40 / intra_refresh=0 / rc_lookahead=60 / rc=2pass / mbtree=1 / bitrate=3400 / ratetol=1.0 / qcomp=0.70 / qpmin=0 / qpmax=69 / qpstep=4 / cplxblur=20.0 / qblur=0.5 / ip_ratio=1.40 / aq=1:1.00
Default : Да
Forced : Нет

Аудио
Идентификатор : 2
Формат : AC-3
Формат/Информация : Audio Coding 3
Расширение режима : CM (complete main)
Параметр Endianness формата : Big
Идентификатор кодека : A_AC3
Продолжительность : 1 ч. 26 м.
Вид битрейта : Постоянный
Битрейт : 192 Кбит/сек
Каналы : 2 канала
Расположение каналов : Front: L R
Частота : 48,0 КГц
Битовая глубина : 16 бит
Метод сжатия : С потерями
Размер потока : 119 Мбайт (5%)
Default : Да
Forced : Нет




Скачать Снайпер.Sun.cheung.sau.(Данте.Лам).[2009.боевик.триллер.драма.криминал.приключения.HDRip.AVC].[MVO].torrent без регистрации
Золото ЗОЛОТАЯ РАЗДАЧА! СКАЧАННОЕ НЕ ЗАСЧИТЫВАЕТСЯ! Золото
Дата: Зарегистрирован   [ Тип: внутренний ] Как тут cкачать?
MAGNET ссылка
MAGNET ссылка


Скачать .torrent

11 KB

Статус: проверено DHT
Скачан: торрент - 135 раз, раздача полностью - 190 раз
Размер: 2,17 GB
Оценка:  3 (Голосов: 1)
Поблагодарили: 5
Поделиться ссылкой на эту раздачу с друзьями:
В контактеFacebookОдноклассникиTwitterLivejournalМой МирLiveinternet
 

 
Показать сообщения:    


Вы не можете начинать темы
Вы не можете отвечать на сообщения
Вы не можете редактировать свои сообщения
Вы не можете удалять свои сообщения
Вы не можете голосовать в опросах
Вы не можете прикреплять файлы к сообщениям
Вы можете скачивать файлы