Loading...
Error

/ Wild Hogs ( / Walt Becker) [2007 ., , , , BDRip-AVC] 2[Dub] + [DVO] + [Original eng] + Subs (Rus, Eng)

 
2,88 GB   |    :  127
1  [  0 KB/s  ]  
 

leon030982

[] 

/ Wild Hogs

, ,

: 2007
: / Touchstone Pictures
: , ,
: 01:39:38
1:
2: ()
3: (., .)

: / Walt Becker

: , , , . , , , , . . , , , , .
: , . , , , -.
, , , . . , , , , .
- , . , , -,

IMDB // /
: BDRip-AVC
: MKV
: H.264
: AC3
: H.264, 1120 x 476, 23.976 fps, ~2791 /
#1: AC3, 384 /, 48 kHz (6 ch) [DUB] [R5]
#2: AC3, 384 /, 48 kHz (6 ch) [DVO] [., .]
#3: AC3, 192 /, 48 kHz (2 ch) [DUB] [Ukrainian R5]
#4: AC3, 384 /, 48 kHz (6 ch) [English]
C: ,
: 15

:

avs [info]: 1120x476p 1:1 @ 24000/1001 fps (cfr)
x264 [info]: using SAR=1/1
x264 [info]: using cpu capabilities: MMX2 SSE2Fast SSSE3 FastShuffle SSE4.1 Cache64
x264 [info]: profile High, level 4.1
x264 [info]: frame I:1516 Avg QP:18.17 size: 94136 PSNR Mean Y:45.01 U:46.86 V:47.43 Avg:45.56 Global:45.03
x264 [info]: frame P:33154 Avg QP:19.58 size: 29160 PSNR Mean Y:44.31 U:47.36 V:47.52 Avg:45.01 Global:43.83
x264 [info]: frame B:108680 Avg QP:22.32 size: 8985 PSNR Mean Y:43.11 U:46.59 V:46.76 Avg:43.88 Global:43.19
x264 [info]: consecutive B-frames: 2.2% 2.2% 6.4% 41.0% 18.9% 24.5% 2.4% 1.2% 0.3% 0.8% 0.1%
x264 [info]: mb I I16..4: 2.9% 77.1% 20.0%
x264 [info]: mb P I16..4: 0.5% 9.7% 2.1% P16..4: 41.8% 27.8% 9.2% 0.9% 0.8% skip: 7.3%
x264 [info]: mb B I16..4: 0.0% 0.7% 0.2% B16..8: 38.4% 12.6% 4.4% direct: 5.9% skip:37.7% L0:38.1% L1:42.6% BI:19.4%
x264 [info]: 8x8 transform intra:77.5% inter:59.3%
x264 [info]: direct mvs spatial:100.0% temporal:0.0%
x264 [info]: coded y,uvDC,uvAC intra: 94.0% 92.6% 75.6% inter: 26.8% 22.2% 5.7%
x264 [info]: i16 v,h,dc,p: 51% 14% 7% 28%
x264 [info]: i8 v,h,dc,ddl,ddr,vr,hd,vl,hu: 10% 11% 5% 9% 13% 13% 13% 11% 13%
x264 [info]: i4 v,h,dc,ddl,ddr,vr,hd,vl,hu: 10% 9% 3% 9% 15% 15% 15% 12% 13%
x264 [info]: i8c dc,h,v,p: 45% 21% 17% 18%
x264 [info]: Weighted P-Frames: Y:1.9% UV:1.1%
x264 [info]: ref P L0: 46.0% 14.9% 18.0% 5.5% 5.1% 3.2% 3.3% 1.8% 2.1% 0.2% 0.0%
x264 [info]: ref B L0: 78.7% 10.4% 4.4% 2.4% 1.7% 1.3% 0.7% 0.4%
x264 [info]: ref B L1: 94.3% 5.7%
x264 [info]: SSIM Mean Y:0.9810096 (17.215db)
x264 [info]: PSNR Mean Y:43.404 U:46.770 V:46.941 Avg:44.156 Global:43.342 kb/s:2791.11
x264 [total]: encoded 143350 frames, 4.44 fps, 2791.11 kb/s

:

General
Unique ID : 201737664171597408134697754475931844944 (0x97C542C6025EEDAD8A95232B98B34150)
Complete name : D:\VIDEO\Wild.Hogs.2007.BDRip-AVC.2xRus.Ukr.Eng.R.G.tRu.mkv
Format : Matroska
File size : 2.88 GiB
Duration : 1h 39mn
Overall bit rate : 4 138 Kbps
Encoded date : UTC 2011-03-30 11:15:09
Writing application : mkvmerge v4.6.0 ('Still Crazy After All These Years') built on Mar 13 2011 18:33:29
Writing library : libebml v1.2.0 + libmatroska v1.1.0
Video
ID : 1
Format : AVC
Format/Info : Advanced Video Codec
Format profile : High@L4.1
Format settings, CABAC : Yes
Format settings, ReFrames : 9 frames
Codec ID : V_MPEG4/ISO/AVC
Duration : 1h 39mn
Bit rate : 2 711 Kbps
Width : 1 120 pixels
Height : 476 pixels
Display aspect ratio : 2.35:1
Frame rate : 23.976 fps
Color space : YUV
Chroma subsampling : 4:2:0
Bit depth : 8 bits
Scan type : Progressive
Bits/(Pixel*Frame) : 0.212
Stream size : 1.89 GiB (66%)
Title : Wild Hogs / Release from R.G.tRu
Writing library : x264 core 114 r1924 08d04a4
Encoding settings : cabac=1 / ref=9 / deblock=1:-2:-1 / analyse=0x3:0x133 / me=umh / subme=10 / psy=1 / psy_rd=1.10:0.00 / mixed_ref=1 / me_range=32 / chroma_me=1 / trellis=2 / 8x8dct=1 / cqm=0 / deadzone=21,11 / fast_pskip=0 / chroma_qp_offset=-2 / threads=6 / sliced_threads=0 / nr=0 / decimate=1 / interlaced=0 / constrained_intra=0 / bframes=10 / b_pyramid=2 / b_adapt=2 / b_bias=0 / direct=3 / weightb=1 / open_gop=0 / weightp=2 / keyint=250 / keyint_min=23 / scenecut=40 / intra_refresh=0 / rc_lookahead=60 / rc=crf / mbtree=0 / crf=18.0 / qcomp=0.65 / qpmin=0 / qpmax=69 / qpstep=4 / vbv_maxrate=25000 / vbv_bufsize=31250 / crf_max=0.0 / nal_hrd=none / ip_ratio=1.40 / pb_ratio=1.30 / aq=1:1.00
Language : English
Audio #1
ID : 2
Format : AC-3
Format/Info : Audio Coding 3
Mode extension : CM (complete main)
Codec ID : A_AC3
Duration : 1h 39mn
Bit rate mode : Constant
Bit rate : 384 Kbps
Channel(s) : 6 channels
Channel positions : Front: L C R, Side: L R, LFE
Sampling rate : 48.0 KHz
Bit depth : 16 bits
Compression mode : Lossy
Stream size : 274 MiB (9%)
Title :
Language : Russian
Audio #2
ID : 3
Format : AC-3
Format/Info : Audio Coding 3
Mode extension : CM (complete main)
Codec ID : A_AC3
Duration : 1h 39mn
Bit rate mode : Constant
Bit rate : 384 Kbps
Channel(s) : 6 channels
Channel positions : Front: L C R, Side: L R, LFE
Sampling rate : 48.0 KHz
Bit depth : 16 bits
Compression mode : Lossy
Stream size : 274 MiB (9%)
Title : (., .)
Language : Russian
Audio #3
ID : 4
Format : AC-3
Format/Info : Audio Coding 3
Mode extension : CM (complete main)
Codec ID : A_AC3
Duration : 1h 39mn
Bit rate mode : Constant
Bit rate : 192 Kbps
Channel(s) : 2 channels
Channel positions : Front: L R
Sampling rate : 48.0 KHz
Bit depth : 16 bits
Compression mode : Lossy
Stream size : 137 MiB (5%)
Title : (Ukr)
Language : Ukrainian
Audio #4
ID : 5
Format : AC-3
Format/Info : Audio Coding 3
Mode extension : CM (complete main)
Codec ID : A_AC3
Duration : 1h 39mn
Bit rate mode : Constant
Bit rate : 384 Kbps
Channel(s) : 6 channels
Channel positions : Front: L C R, Side: L R, LFE
Sampling rate : 48.0 KHz
Bit depth : 16 bits
Compression mode : Lossy
Stream size : 274 MiB (9%)
Title :
Language : English
Text #1
ID : 6
Format : UTF-8
Codec ID : S_TEXT/UTF8
Codec ID/Info : UTF-8 Plain Text
Title :
Language : Russian
Text #2
ID : 7
Format : UTF-8
Codec ID : S_TEXT/UTF8
Codec ID/Info : UTF-8 Plain Text
Title :
Language : English
Menu
00:00:00.000 : en:The Boys
00:08:21.959 : en:Road Trip
00:14:31.412 : en:No Rules
00:20:28.852 : en:The Real Deal
00:28:11.981 : en:The Day Is Today
00:34:27.231 : en:Del Fuego's Bar
00:40:59.081 : en:Getting Dudley's Bike Back
00:47:19.461 : en:Madrid
00:53:19.738 : en:Bull Slap
01:01:23.846 : en:Bobby And The Del Fuegos
01:11:38.919 : en:Jack Comes To Madrid
01:16:41.138 : en:Dudley vs. Del Fuegos
01:21:53.783 : en:Standoff At The Diner
01:29:19.312 : en:Leaving Madrid/Trip's End
01:34:07.725 : en:Credits



..Wild.Hogs.(..Walt.Becker).[2007.....BDRip-AVC].2[Dub].+.[DVO].+.[Original.eng].+.Subs.(Rus.Eng).torrent
  ! ! 
:   [ : ] c?
MAGNET
MAGNET


.torrent

15 KB

: DHT
: - 127 , - 18
: 2,88 GB
5 (: 2)
: 3
:
 FacebookTwitterLivejournal Liveinternet
 

 
: