Loading...
Error

Скачать Фальшивая кукла / Hamis a baba (István Bujtor / Иштван Буйтор) [1991, Детектив, Комедия, DVDRip] [VО] торрент без регистрации

 
Статистика раздачи
Размер:  1,49 GB   |    Скачан:  265 раз
Сидов:  1  [  0 KB/s  ]  
 
Автор Сообщение

leon030982

[] 

Фальшивая кукла / Hamis a baba


Год выпуска: 1991
Страна: Венгрия
Жанр: Детектив, Комедия
Продолжительность: 01:17:55
Перевод: Любительский (одноголосый закадровый) [неизвестный]
Cубтитры: нет
Оригинальная аудиодорожка: нет
Режиссер: István Bujtor / Иштван Буйтор
В ролях: Иштван Буйтор, Андраш Керн, Ласло Козак, Иштван Авар, Шандор Шёрёш
Описание: Фильм является продолжением серий о приключениях майора Кардоша и бывшего лейтенанта милиции ( теперь полиции) Капельки.
Теперь майор Кардош своей бестолковой деятельностью больше мешает, чем помогает Капельке, которого он привлек по старой дружбе к раскрытию налаженной системы наркоторговли из Греции через Венгрию в Германию. Но на этот раз ему не удается присвоить себе все лавры. Большую помощь Капельке оказал его старый друг Пурци, с которым смотревшие предыдущие серии должны быть знакомы.
Рип найден в сети.


Качество видео: DVDRip
Формат видео: AVI
Видео: 640x480 (1.33:1), 25 fps, XviD build 50 ~2479 kbps avg, 0.32 bit/pixel
Аудио: 48 kHz, MPEG Layer 3, 2 ch, ~256.00 kbps avg
General
Complete name : C:\Documents and Settings\Mersicc\Мои документы\Мои видеозаписи\Фальшивая кукла\Фальшивая кукла.avi
Format : AVI
Format/Info : Audio Video Interleave
Format profile : OpenDML
Format settings : rec
File size : 1.49 GiB
Duration : 1h 17mn
Overall bit rate : 2 743 Kbps
Writing application : AVI-Mux GUI 1.17.8, Aug 30 2008 12:36:58
Video
ID : 0
Format : MPEG-4 Visual
Format profile : Advanced Simple@L5
Format settings, BVOP : 4
Format settings, QPel : No
Format settings, GMC : No warppoints
Format settings, Matrix : Default (H.263)
Codec ID : XVID
Codec ID/Hint : XviD
Duration : 1h 17mn
Bit rate : 2 478 Kbps
Width : 640 pixels
Height : 480 pixels
Display aspect ratio : 4:3
Frame rate : 25.000 fps
Color space : YUV
Chroma subsampling : 4:2:0
Bit depth : 8 bits
Scan type : Progressive
Compression mode : Lossy
Bits/(Pixel*Frame) : 0.323
Stream size : 1.35 GiB (90%)
Writing library : XviD 1.2.1 (UTC 2008-12-04)
Audio
ID : 1
Format : MPEG Audio
Format version : Version 1
Format profile : Layer 3
Codec ID : 55
Codec ID/Hint : MP3
Duration : 1h 17mn
Bit rate mode : Constant
Bit rate : 256 Kbps
Channel(s) : 2 channels
Sampling rate : 48.0 KHz
Compression mode : Lossy
Stream size : 143 MiB (9%)
Alignment : Aligned on interleaves
Interleave, duration : 24 ms (0.60 video frame)
Interleave, preload duration : 192 ms
Title : Hamis.a.baba.DVDRip.XviD.AC3-2.0.Hun



Скачать Фальшивая.кукла.Hamis.a.baba.(István.Bujtor.Иштван.Буйтор).[1991.Детектив.Комедия.DVDRip].[VО].torrent без регистрации
Золото ЗОЛОТАЯ РАЗДАЧА! СКАЧАННОЕ НЕ ЗАСЧИТЫВАЕТСЯ! Золото
Дата: Зарегистрирован   [ Тип: внутренний ] Как тут cкачать?
MAGNET ссылка
MAGNET ссылка


Скачать .torrent

30 KB

Статус: проверено DHT
Скачан: торрент - 265 раз, раздача полностью - 115 раз
Размер: 1,49 GB
Оценка:  - (Голосов: 0)
Поблагодарили: 1
Поделиться ссылкой на эту раздачу с друзьями:
В контактеFacebookОдноклассникиTwitterLivejournalМой МирLiveinternet
 

 
Показать сообщения:    


Вы не можете начинать темы
Вы не можете отвечать на сообщения
Вы не можете редактировать свои сообщения
Вы не можете удалять свои сообщения
Вы не можете голосовать в опросах
Вы не можете прикреплять файлы к сообщениям
Вы можете скачивать файлы