Loading...
Error

Скачать Заколдованный доллар / Az elvarazsolt dollar (Иштван Буйтор / Istvan Bujtor) [1985, Детектив, Комедия, DVDRip] [Dub] торрент без регистрации

 
Статистика раздачи
Размер:  1,37 GB   |    Скачан:  135 раз
Сидов:  1  [  0 KB/s  ]  
 
Автор Сообщение

leon030982

[] 

Заколдованный доллар / Az elvarazsolt dollar

Страна: Венгрия
Жанр: Детектив, Комедия
Год выпуска: 1985
Продолжительность: 01:26:05
Перевод: Профессиональный (дублированный)
Cубтитры: нет
Оригинальная аудиодорожка: нет
Режиссер: Иштван Буйтор / Istvan Bujtor
В ролях: Иштван Буйтор, Андраш Керн, Иштван Авар, Золтан Башилидеш, Ференц Зенте, Янош Держи, Эдит Фрайт
Описание: Пародийный приключенческий фильм с драками и погонями, в котором венгерская милиция ловит и обезвреживает преступников, изготовляющих фальшивые доллары. Девчонка-сорванец случайно нашла фальшивый доллар и отдала его детективу Капельке. Операцию возглавляет майор Кардош. Теперь им предстоит заняться этим делом, найти и обезвредить фальшивомонетчиков.
Качество видео: DVDRip
Формат видео: AVI

Видео: 688x512 (1.34:1), 25 fps, XviD MPEG-4 ~1885 kbps avg, 0.21 bit/pixel
Аудио: 48 kHz, AC3 Dolby Digital, 3/2 (L,C,R,l,r) + LFE ch, ~384.00 kbps avg
General
Complete name : C:\Documents and Settings\Mersicc\Мои документы\Мои видеозаписи\Заколдованный доллар\Заколдованный доллар.avi
Format : AVI
Format/Info : Audio Video Interleave
File size : 1.37 GiB
Duration : 1h 26mn
Overall bit rate : 2 280 Kbps
Writing library : VirtualDub build 35390/release
Video
ID : 0
Format : MPEG-4 Visual
Format profile : Advanced Simple@L5
Format settings, BVOP : 2
Format settings, QPel : No
Format settings, GMC : No warppoints
Format settings, Matrix : Default (H.263)
Muxing mode : Packed bitstream
Codec ID : XVID
Codec ID/Hint : XviD
Duration : 1h 26mn
Bit rate : 1 886 Kbps
Width : 688 pixels
Height : 512 pixels
Display aspect ratio : 4:3
Frame rate : 25.000 fps
Color space : YUV
Chroma subsampling : 4:2:0
Bit depth : 8 bits
Scan type : Progressive
Compression mode : Lossy
Bits/(Pixel*Frame) : 0.214
Stream size : 1.13 GiB (83%)
Writing library : XviD 1.1.2 (UTC 2006-11-01)
Audio
ID : 1
Format : AC-3
Format/Info : Audio Coding 3
Mode extension : CM (complete main)
Format settings, Endianness : Big
Codec ID : 2000
Duration : 1h 26mn
Bit rate mode : Constant
Bit rate : 384 Kbps
Channel(s) : 6 channels
Channel positions : Front: L C R, Side: L R, LFE
Sampling rate : 48.0 KHz
Bit depth : 16 bits
Compression mode : Lossy
Stream size : 236 MiB (17%)
Alignment : Aligned on interleaves
Interleave, duration : 40 ms (1.00 video frame)
Interleave, preload duration : 512 ms



Скачать Заколдованный.доллар.Az.elvarazsolt.dollar.(Иштван.Буйтор.Istvan.Bujtor).[1985.Детектив.Комедия.DVDRip].[Dub].torrent без регистрации
Золото ЗОЛОТАЯ РАЗДАЧА! СКАЧАННОЕ НЕ ЗАСЧИТЫВАЕТСЯ! Золото
Дата: Зарегистрирован   [ Тип: внутренний ] Как тут cкачать?
MAGNET ссылка
MAGNET ссылка


Скачать .torrent

28 KB

Статус: проверено DHT
Скачан: торрент - 135 раз, раздача полностью - 78 раз
Размер: 1,37 GB
Оценка:  5 (Голосов: 1)
Поблагодарили: 2
Поделиться ссылкой на эту раздачу с друзьями:
В контактеFacebookОдноклассникиTwitterLivejournalМой МирLiveinternet
 

 

leon030982

[] 

Фальшивая кукла / Hamis a baba (István Bujtor / Иштван Буйтор) [1991, Детектив, Комедия, DVDRip] [VО] az
 

anatolyi100

[] 

 
Показать сообщения:    


Вы не можете начинать темы
Вы не можете отвечать на сообщения
Вы не можете редактировать свои сообщения
Вы не можете удалять свои сообщения
Вы не можете голосовать в опросах
Вы не можете прикреплять файлы к сообщениям
Вы можете скачивать файлы