Loading...
Error

Скачать Убийство / The Killing (Полный 3-ий сезон) (Эдвард Бьянчи, Агнешка Холланд) [2013 г., драма, детектив, триллер, WEB-DLRip] [AVO] (Ю. Сербин) торрент без регистрации

 
Статистика раздачи
Размер:  7,08 GB   |    Скачан:  150 раз
Сидов:  1  [  0 KB/s  ]  
 
Автор Сообщение

leon030982

[] 

Убийство / The Killing (Сезон 03, серии 01-10 из 13)


Год выпуска: 2013
Страна: США, AMC
Жанр: драма, детектив, триллер
Продолжительность: ~00:44:00
Перевод: Авторский (одноголосый закадровый) [Ю.Сербин]
Русские субтитры: нет
Автор идеи: Veena Sud

Режиссёр: Эдвард Бьянчи, Агнешка Холланд

В ролях: Mireille Enos, Joel Kinnaman и др.

Описание: Действие развернется год спустя после событий второго. Линден больше не детектив, но когда поиски пропавшей девушки приводят Холдера к череде ужасных убийств, связанных с её предыдущим расследованием, Линден придется вернуться к работе. В этом сезоне мы недосчитаемся нескольких старых персонажей, таких как Мэр Ричмонд и родители Рози Ларсен, но зато мы познакомимся с некоторыми другими, включая Тома Севарда, приговоренного к смерти убийцы; бывшего напарника Линден, Эда Скиннера и Данетт Лутц - ужасной матери, у которой пропала без вести 15-летняя дочь.



Сэмпл
Качество: WEB-DLRip
Формат: AVI
Видео кодек: XviD
Аудио кодек: AC3
Видео: 720x400 (16:9), ~23,976 fps, ~1300 kbps, ~0.181 bit/pixel
Аудио 1: 48 kHz, 2 ch, 192 kbps - Ю. Сербин
Аудио 2: 48 kHz, 2 ch, 192 kbps - English

Перевод и озвучание: Ю. Сербин
Монтаж и работа со звуком: vadimdexter
3x01 - 02/Jun/2013 - The Jungle / Джунгли
3x02 - 02/Jun/2013 - That You Fear the Most /
3x03 - 09/Jun/2013 - Seventeen
3x04 - 16/Jun/2013 - Head Shots
3x05 - 23/Jun/2013 - Scared and Running
3x06 - 30/Jun/2013 - Eminent Domain
3x07 - 07/Jul/2013 - Hope Kills
3x08 - 14/Jul/2013 - Season 3, Episode 8
3x09 - 21/Jul/2013 - Season 3, Episode 9
3x10 - 28/Jul/2013 - Season 3, Episode 10
3x11 - 04/Aug/2013 - Season 3, Episode 11
3x12 - 04/Aug/2013 - Season 3, Episode 12
Общее
Формат : AVI
Формат/Информация : Audio Video Interleave
Размер файла : 509 Мбайт
Продолжительность : 43 м.
Общий поток : 1652 Кбит/сек
Видео
Идентификатор : 0
Формат : MPEG-4 Visual
Профиль формата : Advanced Simple@L5
Параметр BVOP формата : 2
Параметр QPel формата : Нет
Параметр GMC формата : Без точки перехода
Параметр матрицы формата : Default (H.263)
Идентификатор кодека : XVID
Идентификатор кодека/Подсказка : XviD
Продолжительность : 43 м.
Битрейт : 1250 Кбит/сек
Ширина : 720 пикселей
Высота : 400 пикселей
Соотношение сторон : 16:9
Частота кадров : 23,976 кадра/сек
Цветовое пространство : YUV
Субдискретизация насыщенности : 4:2:0
Битовая глубина : 8 бит
Тип развёртки : Прогрессивная
Метод сжатия : С потерями
Бит/(Пиксели*Кадры) : 0.181
Размер потока : 385 Мбайт (76%)
Библиотека кодирования : XviD 73
Аудио #1
Идентификатор : 1
Формат : AC-3
Формат/Информация : Audio Coding 3
Расширение режима : CM (complete main)
Параметр Endianness формата : Big
Идентификатор кодека : 2000
Продолжительность : 43 м.
Вид битрейта : Постоянный
Битрейт : 192 Кбит/сек
Каналы : 2 канала
Расположение каналов : Front: L R
Частота : 48,0 КГц
Битовая глубина : 16 бит
Метод сжатия : С потерями
Размер потока : 59,1 Мбайт (12%)
Выравнивание : Соединение по промежуткам
Продолжительность промежутка : 32 мс. (0,77 видеокадр)
Аудио #2
Идентификатор : 2
Формат : AC-3
Формат/Информация : Audio Coding 3
Расширение режима : CM (complete main)
Параметр Endianness формата : Big
Идентификатор кодека : 2000
Продолжительность : 43 м.
Вид битрейта : Постоянный
Битрейт : 192 Кбит/сек
Каналы : 2 канала
Расположение каналов : Front: L R
Частота : 48,0 КГц
Битовая глубина : 16 бит
Метод сжатия : С потерями
Размер потока : 59,1 Мбайт (12%)
Выравнивание : Соединение по промежуткам
Продолжительность промежутка : 32 мс. (0,77 видеокадр)
Внимание! Раздача ведётся путём добавления новых серий; при каждом добавлении создаётся новый торрент. Чтобы начать докачку новой серии, пользователям необходимо сделать следующее:
(1) остановить скачивание,
(2) удалить старый торрент у себя из клиента (старые серии удалять не надо),
(3) скачать новый торрент и запустить его у себя в клиенте вместо старого, при этом указать клиенту путь в старую папку куда и должно происходить скачивание новых серий.
Ваш клиент при этом должен произвести хеширование (проверку) старой папки (если не производит сам - помогите ему сделать это), и будет докачивать только те серии которых у вас ещё нет. Старые серии при этом не удаляются, а продолжают раздаваться!
Eсли вы уже удалили старые серии, то предотвратить повторную закачку старых серий можно, отжав галочку в соответствующих местах при запуске нового торрента. По возможности, желательно не удалять старые серии как можно дольше чтобы релизёр не столько продолжал раздавать старые серии, а смог сконцентрироваться на новых.



Скачать Убийство.The.Killing.(Полный.3-ий.сезон).(Эдвард.Бьянчи.Агнешка.Холланд).[2013.г.драма.детектив.триллер.WEB-DLRip].[AVO].(Ю.Сербин).torrent без регистрации
Золото ЗОЛОТАЯ РАЗДАЧА! СКАЧАННОЕ НЕ ЗАСЧИТЫВАЕТСЯ! Золото
Дата: Зарегистрирован   [ Тип: внутренний ] Как тут cкачать?
MAGNET ссылка
MAGNET ссылка


Скачать .torrent

20 KB

Статус: проверено DHT
Скачан: торрент - 150 раз, раздача полностью - 37 раз
Размер: 7,08 GB
Оценка:  5 (Голосов: 2)
Поблагодарили: 5
Поделиться ссылкой на эту раздачу с друзьями:
В контактеFacebookОдноклассникиTwitterLivejournalМой МирLiveinternet
 

 

leon030982

[] 

Раздача обновлена az
 

leon030982

[] 

Раздача обновлена az
 

leon030982

[] 

обновлено az
 

leon030982

[] 

7-я серия az
 

leon030982

[] 

8-я серия az
 

leon030982

[] 

9-я серия az
 

leon030982

[] 

Цитата:

обновлено!
 

leon030982

[] 

Цитата:

добавлены финальные эпизоды az
 

ЛАВ76

[] 

спасибо! поддержите пожалуйста раздачу! ax
 
Показать сообщения:    


Вы не можете начинать темы
Вы не можете отвечать на сообщения
Вы не можете редактировать свои сообщения
Вы не можете удалять свои сообщения
Вы не можете голосовать в опросах
Вы не можете прикреплять файлы к сообщениям
Вы можете скачивать файлы