Loading...
Error

Скачать Убийство / The Killing (Сезон 03, серии 01-09 из 13) (Эдвард Бьянчи, Агнешка Холланд) [2013 г., драма, детектив, триллер, WEB-DL] [1080p] [AVO] (Ю. Сербин) торрент без регистрации

 
Статистика раздачи
Размер:  17,31 GB   |    Скачан:  117 раз
Сидов:  1  [  0 KB/s  ]  
 
Автор Сообщение

leon030982

[] 


Год выхода: 2013
Жанр: Драма, криминал, детектив
Страна: США, Канада
Продолжительность: 9 х ~ 00:43:00
Перевод: Aвторский(одноголосный, закадровый) [Юрий Сербин] [NovaFilmTV]

Режиссер: Эдвард Бьянчи, Дэниэл Эттиэс, Фил Абрахам

В ролях: Мирей Инос, Юэль Киннаман, Брент Секстон, Мишель Форбс, Билл Кэмпбелл, Кристин Леман, Эрик Ладин, Джэми Браун, Том Батлер, Кэти Финдлей

О фильме:
Действие развернется год спустя после событий второго. Линден больше не детектив, но когда поиски пропавшей девушки приводят Холдера к череде ужасных убийств, связанных с её предыдущим расследованием, Линден придется вернуться к работе. В этом сезоне мы недосчитаемся нескольких старых персонажей, таких как Мэр Ричмонд и родители Рози Ларсен, но зато мы познакомимся с некоторыми другими, включая Тома Севарда, приговоренного к смерти убийцы; бывшего напарника Линден, Эда Скиннера и Данетт Лутц - ужасной матери, у которой пропала без вести 15-летняя дочь.



Качество: WEB-DL 1080p
Кодек: MPEG4-AVC
Видео: ~ 4900 Кбит/с, 1912x1072, 23.976 кадр/с
Звук: Русский, английский (AC3, 6 ch, 384 Кбит/с)
Субтитры: Английские

01. The Jungle / Джунгли
02. That You Fear the Most / Самый Страшный Страх

3x01 - 02.06.2013 - The Jungle / Джунгли
3x02 - 02.06.2013 - That You Fear the Most / Самый Страшный Страх
3x03 - 09.06.2013 - Seventeen
3x04 - 16.06.2013 - Head Shots
3x05 - 23.06.2013 - Scared and Running
3x06 - 30.06.2013 - Eminent Domain
3x07 - 07.07.2013 - Hope Kills
3x08 - 14.07.2013 - Episode 8
3x09 - 21.07.2013 - Episode 9
3x10 - 28.07.2013 - Episode 10
3x11 - 04.08.2013 - Episode 11
3x12 - 04.08.2013 - Episode 12

Золотой глобус, 2012 год

Номинации (1):
Лучшая женская роль на ТВ (драма) (Мирей Инос)

Сатурн, 2012 год
Победитель (1):
Лучшая телеактриса второго плана (Мишель Форбс)

Номинации (3):
Лучшая телеактриса (Мирей Инос)
Лучший телеактер второго плана (Юэль Киннаман)
Лучший телесериал, созданный для кабельного телевидения

Эмми, 2011 год

Номинации (2):
Лучшая женская роль в драматическом сериале (Мирей Инос)
Лучшая женская роль второго плана в драматическом сериале (Мишель Форбс)

Общее
Уникальный идентификатор : 186481118430557985099475337314846879802 (0x8C4AF4FE44A2A727ACCB934CC63BB03A)
Полное имя : Убийство (The Killing) (Season III, 2013, WEB-DL 1080p) [NovaFilmTV]The.Killing.S03E01.The.Jungle.1080p.WEB-DL.DD5.1.H.264.mkv
Формат : Matroska
Версия формата : Version 4 / Version 2
Размер файла : 1,74 Гбайт
Продолжительность : 43 м.
Общий поток : 5802 Кбит/сек
Название фильма : Created by DeathN2 for Кинозал.ТВ
Дата кодирования : UTC 2013-06-05 02:53:15
Программа кодирования : mkvmerge v6.2.0 ('Promised Land') built on Apr 28 2013 12:22:01
Библиотека кодирования : libebml v1.3.0 + libmatroska v1.4.0

Видео
Идентификатор : 1
Формат : AVC
Формат/Информация : Advanced Video Codec
Профиль формата : High@L4.0
Параметр CABAC формата : Да
Параметр ReFrames формата : 4 кадра
Идентификатор кодека : V_MPEG4/ISO/AVC
Продолжительность : 43 м.
Битрейт : 4918 Кбит/сек
Ширина : 1912 пикселей
Высота : 1072 пикселя
Соотношение сторон : 16:9
Режим частоты кадров : Постоянный
Частота кадров : 23,976 кадра/сек
Цветовое пространство : YUV
Субдискретизация насыщенности : 4:2:0
Битовая глубина : 8 бит
Тип развёртки : Прогрессивная
Бит/(Пиксели*Кадры) : 0.100
Размер потока : 1,48 Гбайт (85%)
Заголовок : The.Killing.S03E01.The.Jungle.1080p.WEB-DL.DD5.1.H.264-NTb [PublicHD]
Язык : English
Default : Да
Forced : Нет
Основные цвета : BT.709
Характеристики трансфера : BT.709
Коэффициенты матрицы : BT.709

Аудио #1
Идентификатор : 2
Формат : AC-3
Формат/Информация : Audio Coding 3
Расширение режима : CM (complete main)
Параметр Endianness формата : Big
Идентификатор кодека : A_AC3
Продолжительность : 43 м.
Вид битрейта : Постоянный
Битрейт : 384 Кбит/сек
Каналы : 6 каналов
Расположение каналов : Front: L C R, Side: L R, LFE
Частота : 48,0 КГц
Битовая глубина : 16 бит
Метод сжатия : С потерями
Размер потока : 118 Мбайт (7%)
Заголовок : Dolby Digital 5.1 @ 384 kbps
Язык : Russian
Default : Да
Forced : Нет

Аудио #2
Идентификатор : 3
Формат : AC-3
Формат/Информация : Audio Coding 3
Расширение режима : CM (complete main)
Параметр Endianness формата : Big
Идентификатор кодека : A_AC3
Продолжительность : 43 м.
Вид битрейта : Постоянный
Битрейт : 384 Кбит/сек
Каналы : 6 каналов
Расположение каналов : Front: L C R, Side: L R, LFE
Частота : 48,0 КГц
Битовая глубина : 16 бит
Метод сжатия : С потерями
Размер потока : 118 Мбайт (7%)
Заголовок : Dolby Digital 5.1 @ 384 kbps
Язык : English
Default : Нет
Forced : Нет

Текст
Идентификатор : 4
Формат : UTF-8
Идентификатор кодека : S_TEXT/UTF8
Идентификатор кодека/Информация : UTF-8 Plain Text
Язык : English
Default : Нет
Forced : Нет

Общее
Уникальный идентификатор : 225492905951210205615442035637089787388 (0xA9A45A9E8DAC5147AB18D0B07828DDFC)
Полное имя : Убийство (The Killing) (Season III, 2013, WEB-DL 1080p) [NovaFilmTV]The.Killing.S03E02.That.You.Fear.the.Most.1080p.WEB-DL.DD5.1.H.264.mkv
Формат : Matroska
Версия формата : Version 4 / Version 2
Размер файла : 1,73 Гбайт
Продолжительность : 43 м.
Общий поток : 5741 Кбит/сек
Название фильма : Created by DeathN2 for Кинозал.ТВ
Дата кодирования : UTC 2013-06-05 02:57:08
Программа кодирования : mkvmerge v6.2.0 ('Promised Land') built on Apr 28 2013 12:22:01
Библиотека кодирования : libebml v1.3.0 + libmatroska v1.4.0

Видео
Идентификатор : 1
Формат : AVC
Формат/Информация : Advanced Video Codec
Профиль формата : High@L4.0
Параметр CABAC формата : Да
Параметр ReFrames формата : 4 кадра
Идентификатор кодека : V_MPEG4/ISO/AVC
Продолжительность : 43 м.
Битрейт : 4859 Кбит/сек
Ширина : 1912 пикселей
Высота : 1072 пикселя
Соотношение сторон : 16:9
Режим частоты кадров : Постоянный
Частота кадров : 23,976 кадра/сек
Цветовое пространство : YUV
Субдискретизация насыщенности : 4:2:0
Битовая глубина : 8 бит
Тип развёртки : Прогрессивная
Бит/(Пиксели*Кадры) : 0.099
Размер потока : 1,46 Гбайт (85%)
Заголовок : The.Killing.S03E02.That.You.Fear.the.Most.1080p.WEB-DL.DD5.1.H.264-NTb [PublicHD]
Язык : English
Default : Да
Forced : Нет
Основные цвета : BT.709
Характеристики трансфера : BT.709
Коэффициенты матрицы : BT.709

Аудио #1
Идентификатор : 2
Формат : AC-3
Формат/Информация : Audio Coding 3
Расширение режима : CM (complete main)
Параметр Endianness формата : Big
Идентификатор кодека : A_AC3
Продолжительность : 43 м.
Вид битрейта : Постоянный
Битрейт : 384 Кбит/сек
Каналы : 6 каналов
Расположение каналов : Front: L C R, Side: L R, LFE
Частота : 48,0 КГц
Битовая глубина : 16 бит
Метод сжатия : С потерями
Размер потока : 118 Мбайт (7%)
Заголовок : Dolby Digital 5.1 @ 384 kbps
Язык : Russian
Default : Да
Forced : Нет

Аудио #2
Идентификатор : 3
Формат : AC-3
Формат/Информация : Audio Coding 3
Расширение режима : CM (complete main)
Параметр Endianness формата : Big
Идентификатор кодека : A_AC3
Продолжительность : 43 м.
Вид битрейта : Постоянный
Битрейт : 384 Кбит/сек
Каналы : 6 каналов
Расположение каналов : Front: L C R, Side: L R, LFE
Частота : 48,0 КГц
Битовая глубина : 16 бит
Метод сжатия : С потерями
Размер потока : 118 Мбайт (7%)
Заголовок : Dolby Digital 5.1 @ 384 kbps
Язык : English
Default : Нет
Forced : Нет

Текст
Идентификатор : 4
Формат : UTF-8
Идентификатор кодека : S_TEXT/UTF8
Идентификатор кодека/Информация : UTF-8 Plain Text
Язык : English
Default : Нет
Forced : Нет



Скачать Убийство.The.Killing.(Сезон.03.серии.01-09.из.13).(Эдвард.Бьянчи.Агнешка.Холланд).[2013.г.драма.детектив.триллер.WEB-DL].[1080p].[AVO].(Ю.Сербин).torrent без регистрации
Золото ЗОЛОТАЯ РАЗДАЧА! СКАЧАННОЕ НЕ ЗАСЧИТЫВАЕТСЯ! Золото
Дата: Зарегистрирован   [ Тип: внутренний ] Как тут cкачать?
MAGNET ссылка
MAGNET ссылка


Скачать .torrent

23 KB

Статус: проверено DHT
Скачан: торрент - 117 раз, раздача полностью - 0 раз
Размер: 17,31 GB
Оценка:  5 (Голосов: 1)
Поблагодарили: 0
Поделиться ссылкой на эту раздачу с друзьями:
В контактеFacebookОдноклассникиTwitterLivejournalМой МирLiveinternet
 

 

leon030982

[] 

обновлено az
 

leon030982

[] 

4-я серия ay az
 

leon030982

[] 

обновлено az ay
 

leon030982

[] 

9-я серия
 
Показать сообщения:    


Вы не можете начинать темы
Вы не можете отвечать на сообщения
Вы не можете редактировать свои сообщения
Вы не можете удалять свои сообщения
Вы не можете голосовать в опросах
Вы не можете прикреплять файлы к сообщениям
Вы можете скачивать файлы