Loading...
Error

Скачать Бешеный пес и Глори / Mad Dog and Glory (Джон МакНотон / John McNaughton) [1993 г., драма, мелодрама, комедия, криминал, DVDRip] [DVO] (Премьер Видео Фильм) + [AVO] (А. Гаврилов) торрент без регистрации

 
Статистика раздачи
Размер:  1,9 GB   |    Скачан:  119 раз
Сидов:  1  [  0 KB/s  ]  
 
Автор Сообщение

leon030982

[] 

Бешеный пес и Глори / Mad Dog and Glory


Год выпуска: 1993
Страна: США
Жанр: драма, мелодрама, комедия, криминал
Продолжительность: 01:32:45
Перевод 1: Профессиональный (двухголосый закадровый) [Премьер Видео Фильм]
Перевод 2: Авторский (одноголосный) [Андрей Гаврилов]
Субтитры: нет

Режиссер: Джон МакНотон / John McNaughton

В ролях: Роберт Де Ниро, Ума Турман, Билл Мюррей, Кэти Бэйкер, Дэвид Карузо, Майк Старр, Том Таулз, Даг Хара, Дерек Энансиэйшн, Ивэн Лайонел

Описание: Полицейский фотограф Уэйн (Де Ниро) по прозвищу Бешеный Пес - человек застенчивый и замкнутый. Он случайно спасает жизнь гангстеру Фрэнку (Мюррей), позеру и шоумену-любителю. В благодарность Фрэнк "дарит" Уэйну девушку (Турман) - но только на месяц. Де Ниро умеет играть дурацкие роли. Он восхитительно органичен в самых неправдоподобных ситуациях и спасает этот странный, вымученный фильм. Оцените хотя бы сцену, когда Уэйн-Де Ниро на месте преступления заводит пластинку с песней Луи Прима. (Иванов М.)



Качество: DVDRip
Формат: AVI
Видео кодек: XviD
Аудио кодек: AC3
Видео: 720x384 (1.85:1), 25 fps, XviD build 47 ~2535 kbps avg, 0.37 bit/pixel
Аудио #1: 48 kHz, AC3 Dolby Digital, 2/0 (L,R) ch, ~192.00 kbps avg [Премьер Видео Фильм]
Аудио #2: 48 kHz, AC3 Dolby Digital, 2/0 (L,R) ch, ~192.00 kbps avg (Гаврилов)
E:\INTERNET\Бешеный пес и Глори.1993.DVDRip._[DVO] + [AVO].avi
General
Complete name : E:\INTERNET\Бешеный пес и Глори.1993.DVDRip._[DVO] + [AVO].avi
Format : AVI
Format/Info : Audio Video Interleave
File size : 1.90 GiB
Duration : 1h 32mn
Overall bit rate : 2 933 Kbps
Writing application : VirtualDubMod 1.5.10.3 (build 2550/release)
Writing library : VirtualDubMod build 2550/release
Video #0
ID : 0
Format : MPEG-4 Visual
Format profile : Advanced Simple@L5
Format settings, BVOP : 1
Format settings, QPel : No
Format settings, GMC : No warppoints
Format settings, Matrix : Custom
Codec ID : XVID
Codec ID/Hint : XviD
Duration : 1h 32mn
Bit rate : 2 535 Kbps
Width : 720 pixels
Height : 384 pixels
Display aspect ratio : 1.85:1
Frame rate : 25.000 fps
Color space : YUV
Chroma subsampling : 4:2:0
Bit depth : 8 bits
Scan type : Progressive
Compression mode : Lossy
Bits/(Pixel*Frame) : 0.367
Stream size : 1.64 GiB (86%)
Writing library : XviD 1.2.0.dev47 (UTC 2006-11-01)
Audio #1
ID : 1
Format : AC-3
Format/Info : Audio Coding 3
Mode extension : CM (complete main)
Format settings, Endianness : Big
Codec ID : 2000
Duration : 1h 32mn
Bit rate mode : Constant
Bit rate : 192 Kbps
Channel(s) : 2 channels
Channel positions : Front: L R
Sampling rate : 48.0 KHz
Bit depth : 16 bits
Compression mode : Lossy
Stream size : 127 MiB (7%)
Alignment : Split accross interleaves
Interleave, duration : 40 ms (1.00 video frame)
Interleave, preload duration : 500 ms
Audio #2
ID : 2
Format : AC-3
Format/Info : Audio Coding 3
Format profile : Dolby Digital
Mode extension : CM (complete main)
Format settings, Endianness : Big
Codec ID : 2000
Duration : 1h 32mn
Bit rate mode : Constant
Bit rate : 192 Kbps
Channel(s) : 2 channels
Channel positions : Front: L R
Sampling rate : 48.0 KHz
Bit depth : 16 bits
Compression mode : Lossy
Stream size : 127 MiB (7%)
Alignment : Split accross interleaves
Interleave, duration : 40 ms (1.00 video frame)
Interleave, preload duration : 500 ms



Скачать Бешеный.пес.и.Глори.Mad.Dog.and.Glory.(Джон.МакНотон.John.McNaughton).[1993.г.драма.мелодрама.комедия.криминал.DVDRip].[DVO].(Премьер.Видео.Фильм).+.[AVO].(А.Гаврилов).torrent без регистрации
Золото ЗОЛОТАЯ РАЗДАЧА! СКАЧАННОЕ НЕ ЗАСЧИТЫВАЕТСЯ! Золото
Дата: Зарегистрирован   [ Тип: внутренний ] Как тут cкачать?
MAGNET ссылка
MAGNET ссылка


Скачать .torrent

20 KB

Статус: проверено DHT
Скачан: торрент - 119 раз, раздача полностью - 10 раз
Размер: 1,9 GB
Оценка:  5 (Голосов: 1)
Поблагодарили: 0
Поделиться ссылкой на эту раздачу с друзьями:
В контактеFacebookОдноклассникиTwitterLivejournalМой МирLiveinternet
 

 
Показать сообщения:    


Вы не можете начинать темы
Вы не можете отвечать на сообщения
Вы не можете редактировать свои сообщения
Вы не можете удалять свои сообщения
Вы не можете голосовать в опросах
Вы не можете прикреплять файлы к сообщениям
Вы можете скачивать файлы