Loading...
Error

Скачать Преступления прошлого / Case Histories (Сезон 1, серии 01-02 из 06) (Марк Джобст, Билл Андерсон, Дэн Зефф) [2011 г., детектив, драма, криминал, WEB-DL] [720p] [MVO] (AlexFilm) + Subs (Rus, Eng) торрент без регистрации

 
Статистика раздачи
Размер:  3,63 GB   |    Скачан:  130 раз
Сидов:  1  [  0 KB/s  ]  
 
Автор Сообщение

leon030982

[] 

Преступления прошлого / Case Histories


Год выпуска: 2011
Страна: Великобритания
Жанр: детектив, драма, криминал
Продолжительность: 01-02 х ~00:59:00
Перевод: Профессиональный многоголосый закадровый [AlexFilm]
Субтитры: русские (форсированные и полные), английские
Режиссеры: Марк Джобст (1, 2), Билл Андерсон (3, 4), Дэн Зефф (5, 6)

В ролях: Джейсон Айзекс (Джексон Броуди), Аманда Аббингтон, Кирсти Митчел, Зэйв Эштон, Наташа Литтл, Милли Иннес, Эдвард Корри, Филип Дэвис, Пэтерсон Джозеф, Адам Годли, Том Гудман-Хилл
Описание: Однажды в Эдинбурге... Хотя это могло произойти и в другом городе туманного Альбиона, только было бы не так красиво… Впрочем, вернемся к сюжету. Одинокий (потому что разведён) частный детектив Джексон Броуди (Джейсон Айзекс) часто отказывается вести дело, если клиент ему неприятен. Зато сам ввязывается в дела, где его помощь вроде бы не нужна, а полиция, в которой он долго работал и ушёл оттуда с большим скандалом, так и прямо намекает, чтобы он держался в стороне. Однако наш герой не из таких. Куда детектива Джексона Броуди приведёт его собственное любопытство, пережитый им опыт потери сестры и насыщенная преступлениями жизнь провинциального Эдинбурга – смотрите в 6-серийном мини британского производства Case Histories по произведениям Кейт Аткинсон.
Релиз:
Перевод: vipere и Илья Белкин
Монтаж и сведение звука: Михаил Шорыгин
Роли озвучивали:Евгения Тихонова
Татьяна Манетина
Михаил Суслов
Александр Дасевич
Константин Погодаев

Качество: WEB-DL 720p
Формат: MKV
Видео кодек: H.264
Аудио кодек: AC3
Видео: 960@1280x720 (16:9), 25 fps, MPEG-4 AVC ~3900 kbps avg, 0.228 bit/pixel
Аудио Rus: 48 kHz, AC3 Dolby Digital, 2/0 (L,R) ch, ~224.00 kbps avg
Аудио Eng: 48 kHz, AC3 Dolby Digital, 2/0 (L,R) ch, ~224.00 kbps avg
.Преступления прошлого. Часть 1 (Case Histories - Part 1)
Преступления прошлого. Часть 2 (Case Histories - Part 2)
Поворот к лучшему. Часть 1 (One Good Turn - Part 1)
Поворот к лучшему. Часть 2 (One Good Turn - Part 2)
Ждать ли добрых вестей? Часть 1 (When Will There Be Good News? - Part 1)
Ждать ли добрых вестей? Часть 2 (When Will There Be Good News? - Part 2)
Format : Matroska
Format version : Version 2
File size : 1.85 GiB
Duration : 59mn 6s
Overall bit rate : 4 484 Kbps
Movie name : Case Histories 1x01 Case Histories - Part 1 @ AlexFilm
Encoded date : UTC 2013-06-05 09:27:47
Writing application : mkvmerge v5.4.0 ('Piper') built on Mar 10 2012 13:34:39
Writing library : libebml v1.2.3 + libmatroska v1.3.0
Video
ID : 1
Format : AVC
Format/Info : Advanced Video Codec
Format profile : Main@L3.1
Format settings, CABAC : No
Format settings, ReFrames : 2 frames
Codec ID : V_MPEG4/ISO/AVC
Duration : 59mn 6s
Bit rate : 3 947 Kbps
Width : 960 pixels
Height : 720 pixels
Display aspect ratio : 16:9
Frame rate : 25.000 fps
Color space : YUV
Chroma subsampling : 4:2:0
Bit depth : 8 bits
Scan type : Progressive
Bits/(Pixel*Frame) : 0.228
Stream size : 1.63 GiB (88%)
Language : English
Default : Yes
Forced : No
Color primaries : BT.709-5, BT.1361, IEC 61966-2-4, SMPTE RP177
Transfer characteristics : BT.709-5, BT.1361
Matrix coefficients : BT.709-5, BT.1361, IEC 61966-2-4 709, SMPTE RP177
Audio #1
ID : 2
Format : AC-3
Format/Info : Audio Coding 3
Mode extension : CM (complete main)
Codec ID : A_AC3
Duration : 59mn 6s
Bit rate mode : Constant
Bit rate : 224 Kbps
Channel(s) : 2 channels
Channel positions : Front: L R
Sampling rate : 48.0 KHz
Bit depth : 16 bits
Compression mode : Lossy
Stream size : 94.7 MiB (5%)
Title : DD2.0 AlexFilm
Language : Russian
Default : Yes
Forced : No
Audio #2
ID : 3
Format : AC-3
Format/Info : Audio Coding 3
Mode extension : CM (complete main)
Codec ID : A_AC3
Duration : 59mn 6s
Bit rate mode : Constant
Bit rate : 224 Kbps
Channel(s) : 2 channels
Channel positions : Front: L R
Sampling rate : 48.0 KHz
Bit depth : 16 bits
Compression mode : Lossy
Stream size : 94.7 MiB (5%)
Title : DD2.0 Original
Language : English
Default : No
Forced : No
Text #1
ID : 4
Format : ASS
Codec ID : S_TEXT/ASS
Codec ID/Info : Advanced Sub Station Alpha
Compression mode : Lossless
Title : Forced
Language : Russian
Default : Yes
Forced : No
Text #2
ID : 5
Format : ASS
Codec ID : S_TEXT/ASS
Codec ID/Info : Advanced Sub Station Alpha
Compression mode : Lossless
Title : vipere и Илья Белкин
Language : Russian
Default : No
Forced : No
Text #3
ID : 6
Format : ASS
Codec ID : S_TEXT/ASS
Codec ID/Info : Advanced Sub Station Alpha
Compression mode : Lossless
Title : Original
Language : English
Default : No
Forced : No
Внимание! Раздача ведётся путём добавления новых серий; при каждом добавлении создаётся новый торрент. Чтобы начать докачку новой серии, пользователям необходимо сделать следующее:
(1) остановить скачивание,
(2) удалить старый торрент у себя из клиента (старые серии удалять не надо),
(3) скачать новый торрент и запустить его у себя в клиенте вместо старого, при этом указать клиенту путь в старую папку куда и должно происходить скачивание новых серий.
Ваш клиент при этом должен произвести хеширование (проверку) старой папки (если не производит сам - помогите ему сделать это), и будет докачивать только те серии которых у вас ещё нет. Старые серии при этом не удаляются, а продолжают раздаваться!
Eсли вы уже удалили старые серии, то предотвратить повторную закачку старых серий можно, отжав галочку в соответствующих местах при запуске нового торрента. По возможности, желательно не удалять старые серии как можно дольше, чтобы релизёр не столько продолжал раздавать старые серии, а смог сконцентрироваться на новых.






Скачать Преступления.прошлого.Case.Histories.(Сезон.1.серии.01-02.из.06).(Марк.Джобст.Билл.Андерсон.Дэн.Зефф).[2011.г.детектив.драма.криминал.WEB-DL].[720p].[MVO].(AlexFilm).+.Subs.(Rus.Eng).torrent без регистрации
Золото ЗОЛОТАЯ РАЗДАЧА! СКАЧАННОЕ НЕ ЗАСЧИТЫВАЕТСЯ! Золото
Дата: Зарегистрирован   [ Тип: внутренний ] Как тут cкачать?
MAGNET ссылка
MAGNET ссылка


Скачать .torrent

19 KB

Статус: проверено DHT
Скачан: торрент - 130 раз, раздача полностью - 28 раз
Размер: 3,63 GB
Оценка:  - (Голосов: 0)
Поблагодарили: 1
Поделиться ссылкой на эту раздачу с друзьями:
В контактеFacebookОдноклассникиTwitterLivejournalМой МирLiveinternet
 

 

leon030982

[] 

2-я серия az
 
Показать сообщения:    


Вы не можете начинать темы
Вы не можете отвечать на сообщения
Вы не можете редактировать свои сообщения
Вы не можете удалять свои сообщения
Вы не можете голосовать в опросах
Вы не можете прикреплять файлы к сообщениям
Вы можете скачивать файлы