Loading...
Error

Скачать В открытом космосе / Outer Touch (Норман Уоррен) [1979, комедия, фантастика, DVDRip] [MVO] торрент без регистрации

 
Статистика раздачи
Размер:  743 MB   |    Скачан:  130 раз

Полного источника не было: 25 минут

 
Автор Сообщение

Marsianka

[] 

Информация о фильме
Название: В открытом космосе
Оригинальное название: Outer Touch
Год выхода: 1979
Жанр: комедия, фантастика
Режиссер: Norman J. Warren / Норман Уоррен
В ролях: Barry Stokes / Барри Стоукс /, Tony Maiden / Тони Мейден /, Glory Annen / Глори Аннен /, Michael Rowlatt, Ava Cadell, Kate Ferguson

О фильме:
На территории Англии терпит крушение НЛО. На борту летающей тарелки оказываются три очень симпатичных инопланетянки и нечто со сладким компьютерным голосом. Немного поразмыслив, они похищают четверых землян. Вскоре оказывается, что цель у пришельцев самая банальная: продолжение рода.


Format : AVI
Format/Info : Audio Video Interleave
File size : 743 MiB
Duration : 1h 17mn
Overall bit rate mode : Variable
Overall bit rate : 1 344 Kbps
Writing application : VirtualDubMod 1.5.10.2 (build 2540/release)
Writing library : VirtualDubMod build 2540/release

Video
ID : 0
Format : MPEG-4 Visual
Format profile : Advanced Simple@L5
Format settings, BVOP : 2
Format settings, QPel : No
Format settings, GMC : No warppoints
Format settings, Matrix : Default (MPEG)
Muxing mode : Packed bitstream
Codec ID : XVID
Codec ID/Hint : XviD
Duration : 1h 17mn
Bit rate : 1 128 Kbps
Width : 576 pixels
Height : 432 pixels
Display aspect ratio : 4:3
Frame rate : 23.976 fps
Color space : YUV
Chroma subsampling : 4:2:0
Bit depth : 8 bits
Scan type : Progressive
Compression mode : Lossy
Bits/(Pixel*Frame) : 0.189
Stream size : 623 MiB (84%)
Writing library : XviD 1.1.2 (UTC 2006-11-01)

Audio #1
ID : 1
Format : MPEG Audio
Format version : Version 1
Format profile : Layer 3
Codec ID : 55
Codec ID/Hint : MP3
Duration : 1h 17mn
Bit rate mode : Variable
Bit rate : 98.4 Kbps
Channel(s) : 1 channel
Sampling rate : 48.0 KHz
Compression mode : Lossy
Stream size : 54.4 MiB (7%)
Alignment : Aligned on interleaves
Interleave, duration : 24 ms (0.58 video frame)
Interleave, preload duration : 195 ms

Audio #2
ID : 2
Format : MPEG Audio
Format version : Version 1
Format profile : Layer 3
Codec ID : 55
Codec ID/Hint : MP3
Duration : 1h 17mn
Bit rate mode : Variable
Bit rate : 97.6 Kbps
Channel(s) : 1 channel
Sampling rate : 48.0 KHz
Compression mode : Lossy
Stream size : 54.0 MiB (7%)
Alignment : Aligned on interleaves
Interleave, duration : 24 ms (0.58 video frame)
Interleave, preload duration : 196 ms
Страна: Великобритания
Продолжительность: 01:27:05
Перевод: Профессиональный (многоголосый, закадровый)

Файл
Кодек: Xvid
Качество: DVDRip
Видео: Xvid 576x432 23.976fps [Video] Bit rate:1 128 Kbps
Звук: MP3 48000Hz mono 98kbps [Audio]



Скачать В.открытом.космосе.Outer.Touch.(Норман.Уоррен).[1979.комедия.фантастика.DVDRip].[MVO].torrent без регистрации
Золото ЗОЛОТАЯ РАЗДАЧА! СКАЧАННОЕ НЕ ЗАСЧИТЫВАЕТСЯ! Золото
Дата: Зарегистрирован   [ Тип: внутренний ] Как тут cкачать?
MAGNET ссылка
MAGNET ссылка


Скачать .torrent

15 KB

Статус: проверено DHT
Скачан: торрент - 130 раз, раздача полностью - 22 раз
Размер: 743 MB
Оценка:  - (Голосов: 0)
Поблагодарили: 2
Поделиться ссылкой на эту раздачу с друзьями:
В контактеFacebookОдноклассникиTwitterLivejournalМой МирLiveinternet
 

 
Показать сообщения:    


Вы не можете начинать темы
Вы не можете отвечать на сообщения
Вы не можете редактировать свои сообщения
Вы не можете удалять свои сообщения
Вы не можете голосовать в опросах
Вы не можете прикреплять файлы к сообщениям
Вы можете скачивать файлы