Loading...
Error

Скачать Долги: В Бога Верую / Cobrador: In god we trust (Поль Ледюк) [2006, криминальная драма, DVDRip-AVC] [MVO] торрент без регистрации

 
Статистика раздачи
Размер:  1,49 GB   |    Скачан:  102 раза
Сидов:  1  [  0 KB/s  ]  
 
Автор Сообщение

Marsianka

[] 

Информация о фильме
Название: Долги: В Бога Верую
Оригинальное название: Cobrador: In god we trust
Год выхода: 2006
Жанр: криминальная драма
Режиссер: Поль Ледюк
В ролях: Питер Фонда, Лазаро Рамос, Антонелла Коста, Милтон Гонсалез

О фильме:
В очень неоднозначной криминальной драме мексиканского режиссёра Поля Ледюка Питер Фонда играет роль миллионера-социопата по имени мистер Икс, живущего в Майами и получающего странное удовольствие, преследуя гуляющих женщин на своём огромном внедорожнике. Тем временем Кобрадор, бразильский шахтёр, направляется в Нью-Йорк, убивая попутно всех, кого встречает на пути.

Мистер Икс отправляется в Мексику, где знакомится с аргентинским фотографом Аной, вместе с которой ввязываются в кровавую криминальную игру на манер Бонни и Клайда...



Страна: Мексика, Испания, Аргентина, Франция, Бразилия, Великобритания
Студия: Arca Difusion, Buena Onda, CNC
Продолжительность: 01:28:37
Перевод: Профессиональный (многоголосый, закадровый)

Файл
Кодек: h.264
Качество: DVDRip-AVC
Видео: 720x576 (16:9) @ 1024x576 (анаморф), 25.000 fps, AVC, ~2028 Kbps, 0.196 bits/pixel
Звук:
1) Английский, 48.0 KHz, AC3, 2 ch, 192 Kbps
2) Русский, 48.0 KHz, AC3, 2 ch, 192 Kbps
Субтитры: нет
Общее
Уникальный идентификатор : 233693709429378751497394803311578652973 (0xAFCFC572A37EC6739639B81AF94F212D)
Полное имя : D:FilmsDolgi_v_boga_veruyu.2006.DVDRip-AVC.mkv
Формат : Matroska
Версия формата : Version 4 / Version 2
Размер файла : 1,49 Гбайт
Продолжительность : 1 ч. 28 м.
Общий поток : 2413 Кбит/сек
Дата кодирования : UTC 2013-06-05 19:22:43
Программа кодирования : mkvmerge v6.2.0 ('Promised Land') built on Apr 28 2013 12:22:01
Библиотека кодирования : libebml v1.3.0 + libmatroska v1.4.0

Видео
Идентификатор : 1
Формат : AVC
Формат/Информация : Advanced Video Codec
Профиль формата : High@L4.1
Параметр CABAC формата : Да
Параметр ReFrames формата : 16 кадров
Идентификатор кодека : V_MPEG4/ISO/AVC
Продолжительность : 1 ч. 28 м.
Битрейт : 2028 Кбит/сек
Ширина : 720 пикселей
Высота : 576 пикселей
Соотношение сторон : 16:9
Режим частоты кадров : Постоянный
Частота кадров : 25,000 кадров/сек
Стандарт вещания : PAL
Цветовое пространство : YUV
Субдискретизация насыщенности : 4:2:0
Битовая глубина : 8 бит
Тип развёртки : Прогрессивная
Бит/(Пиксели*Кадры) : 0.196
Размер потока : 1,23 Гбайт (82%)
Библиотека кодирования : x264 core 130 r2273 b3065e6
Настройки программы : cabac=1 / ref=16 / deblock=1:0:0 / analyse=0x3:0x133 / me=umh / subme=10 / psy=1 / psy_rd=1.05:0.10 / mixed_ref=1 / me_range=32 / chroma_me=1 / trellis=2 / 8x8dct=1 / cqm=0 / deadzone=21,11 / fast_pskip=0 / chroma_qp_offset=-3 / threads=8 / lookahead_threads=2 / sliced_threads=0 / nr=0 / decimate=0 / interlaced=0 / bluray_compat=0 / constrained_intra=0 / bframes=10 / b_pyramid=2 / b_adapt=2 / b_bias=0 / direct=3 / weightb=1 / open_gop=0 / weightp=2 / keyint=250 / keyint_min=25 / scenecut=40 / intra_refresh=0 / rc=2pass / mbtree=0 / bitrate=2028 / ratetol=1.0 / qcomp=0.60 / qpmin=0 / qpmax=60 / qpstep=4 / cplxblur=20.0 / qblur=0.5 / ip_ratio=1.40 / pb_ratio=1.30 / aq=1:1.00
Default : Нет
Forced : Нет
Коэффициенты матрицы : BT.601

Аудио #1
Идентификатор : 2
Формат : AC-3
Формат/Информация : Audio Coding 3
Расширение режима : CM (complete main)
Параметр Endianness формата : Big
Идентификатор кодека : A_AC3
Продолжительность : 1 ч. 28 м.
Вид битрейта : Постоянный
Битрейт : 192 Кбит/сек
Каналы : 2 канала
Расположение каналов : Front: L R
Частота : 48,0 КГц
Битовая глубина : 16 бит
Метод сжатия : С потерями
Размер потока : 122 Мбайт (8%)
Язык : English
Default : Нет
Forced : Нет

Аудио #2
Идентификатор : 3
Формат : AC-3
Формат/Информация : Audio Coding 3
Расширение режима : CM (complete main)
Параметр Endianness формата : Big
Идентификатор кодека : A_AC3
Продолжительность : 1 ч. 28 м.
Вид битрейта : Постоянный
Битрейт : 192 Кбит/сек
Каналы : 2 канала
Расположение каналов : Front: L R
Частота : 48,0 КГц
Битовая глубина : 16 бит
Метод сжатия : С потерями
Размер потока : 122 Мбайт (8%)
Язык : Russian
Default : Да
Forced : Нет

Меню
00:00:00.000 : en:Chapter 01
00:11:05.040 : en:Chapter 02
00:22:40.440 : en:Chapter 03
00:32:42.240 : en:Chapter 04
00:44:06.360 : en:Chapter 05
00:54:15.600 : en:Chapter 06
01:05:20.880 : en:Chapter 07
01:15:55.920 : en:Chapter 08
frame I:919 Avg QP:15.92 size: 59016
frame P:39589 Avg QP:18.15 size: 18913
frame B:92418 Avg QP:20.48 size: 5887
Релиз от: Temperest



Скачать Долги.В.Бога.Верую.Cobrador.In.god.we.trust.(Поль.Ледюк).[2006.криминальная.драма.DVDRip-AVC].[MVO].torrent без регистрации
Золото ЗОЛОТАЯ РАЗДАЧА! СКАЧАННОЕ НЕ ЗАСЧИТЫВАЕТСЯ! Золото
Дата: Зарегистрирован   [ Тип: внутренний ] Как тут cкачать?
MAGNET ссылка
MAGNET ссылка


Скачать .torrent

15 KB

Статус: проверено DHT
Скачан: торрент - 102 раз, раздача полностью - 28 раз
Размер: 1,49 GB
Оценка:  - (Голосов: 0)
Поблагодарили: 1
Поделиться ссылкой на эту раздачу с друзьями:
В контактеFacebookОдноклассникиTwitterLivejournalМой МирLiveinternet
 

 
Показать сообщения:    


Вы не можете начинать темы
Вы не можете отвечать на сообщения
Вы не можете редактировать свои сообщения
Вы не можете удалять свои сообщения
Вы не можете голосовать в опросах
Вы не можете прикреплять файлы к сообщениям
Вы можете скачивать файлы