Loading...
Error

Скачать Точка кипения / Boiling Point (Джеймс Б. Харрис) [1993, триллер, драма, криминал, DVDRip] [AVO] торрент без регистрации

 
Статистика раздачи
Размер:  1,46 GB   |    Скачан:  120 раз
Сидов:  1  [  0 KB/s  ]  
 
Автор Сообщение

Marsianka

[] 

Информация о фильме
Название: Точка кипения
Оригинальное название: Boiling Point
Год выхода: 1993
Жанр: триллер, драма, криминал
Режиссер: Джеймс Б. Харрис / James B. Harris
В ролях: Уэсли Снайпс /Wesley Snipes/, Деннис Хоппер /Dennis Hopper/, Лолита Давидович /Lolita Davidovich/, Дэн Хедайя /Dan Hedaya/, Вигго Мортенсен /Viggo Mortensen/, Сеймур Кэссел /Seymour Cassel/, Джонатан Бэнкс /Jonathan Banks/, Валери Перрин /Valerie Perrine/

О фильме:
Операция полицейских по захвату группы торговцев наркотиками провалилась. С трагическим исходом - был убит полицейский Руссо, работавший под "прикрытием"( то есть выдававший себя за перекупщика наркотиков). Но преступники захватили деньги, которые принес Руссо, а они были фальшивыми. И через несколько дней поддельные банкоты "всплыли".
В свою картину, поставленную по роману Джералда Петиевича "Денежные люди", режиссеру Джеймсу Б. Хэррису удалось собрать шикарную актерскую команду, даже если не считать исполнителей главных ролей- на втором плане играют Вигго Мортенсен и Сеймур Кэссел, Джонатан Бэнкс и Тони Ло Бьянко, Валери Перрин и Джеймс Толкэн, Пол Глисон и Дэн Хедайя. И, надо сказать честно, им есть что играть в этом фильме.



Страна: США
Продолжительность: 01:28:46
Перевод: Авторский (одноголосый закадровый) Андрей Гаврилов

Файл
Кодек: XviD
Качество: DVDRip с DVD9
Видео: 720x384, 25.000 fps, 2150 Kbps
Аудио: 48 kHz, AC3, 2 ch, 192Kbps
General
Complete name : Boiling_Point.1993.DVDRip.avi
Format : AVI
Format/Info : Audio Video Interleave
File size : 1.46 GiB
Duration : 1h 28mn
Overall bit rate : 2 352 Kbps
Writing application : VirtualDubMod 1.5.10.3 | www.virtualdub-fr.org || (build 2550/release)
Writing library : VirtualDubMod build 2550/release

Video
ID : 0
Format : MPEG-4 Visual
Format profile : Advanced Simple@L5
Format settings, BVOP : 1
Format settings, QPel : No
Format settings, GMC : No warppoints
Format settings, Matrix : Custom
Codec ID : XVID
Codec ID/Hint : XviD
Duration : 1h 28mn
Bit rate : 2 150 Kbps
Width : 720 pixels
Height : 384 pixels
Display aspect ratio : 1.85:1
Frame rate : 25.000 fps
Color space : YUV
Chroma subsampling : 4:2:0
Bit depth : 8 bits
Scan type : Progressive
Compression mode : Lossy
Bits/(Pixel*Frame) : 0.311
Stream size : 1.33 GiB (91%)
Writing library : XviD 73

Audio
ID : 1
Format : AC-3
Format/Info : Audio Coding 3
Mode extension : CM (complete main)
Format settings, Endianness : Big
Codec ID : 2000
Duration : 1h 28mn
Bit rate mode : Constant
Bit rate : 192 Kbps
Channel(s) : 2 channels
Channel positions : Front: L R
Sampling rate : 48.0 KHz
Bit depth : 16 bits
Compression mode : Lossy
Stream size : 122 MiB (8%)
Alignment : Split accross interleaves
Interleave, duration : 40 ms (1.00 video frame)
Interleave, preload duration : 500 ms
Релиз от: Leon-masl



Скачать Точка.кипения.Boiling.Point.(Джеймс.Б.Харрис).[1993.триллер.драма.криминал.DVDRip].[AVO].torrent без регистрации
Золото ЗОЛОТАЯ РАЗДАЧА! СКАЧАННОЕ НЕ ЗАСЧИТЫВАЕТСЯ! Золото
Дата: Зарегистрирован   [ Тип: внутренний ] Как тут cкачать?
MAGNET ссылка
MAGNET ссылка


Скачать .torrent

15 KB

Статус: проверено DHT
Скачан: торрент - 120 раз, раздача полностью - 29 раз
Размер: 1,46 GB
Оценка:  5 (Голосов: 1)
Поблагодарили: 2
Поделиться ссылкой на эту раздачу с друзьями:
В контактеFacebookОдноклассникиTwitterLivejournalМой МирLiveinternet
 

 
Показать сообщения:    


Вы не можете начинать темы
Вы не можете отвечать на сообщения
Вы не можете редактировать свои сообщения
Вы не можете удалять свои сообщения
Вы не можете голосовать в опросах
Вы не можете прикреплять файлы к сообщениям
Вы можете скачивать файлы