Loading...
Error

Скачать Деревня / The Village (сезон 01) (Антония Бёрд, Гиллис МакКиннон) [2013, история, драма, SATRip] [MVO (Jaskier)] торрент без регистрации

 
Статистика раздачи
Размер:  3,4 GB   |    Скачан:  127 раз
Сидов:  1  [  0 KB/s  ]  
 
Автор Сообщение

МихаНЕзатор

[] 

Год выпуска: 2013
Страна: Великобритания
Жанр: история, драма
Продолжительность:6х ~00:59:00
Перевод: Профессиональный (многоголосый закадровый) Студия Jaskier
Русские субтитры: нет

Режиссёр: Антония Бёрд, Гиллис МакКиннон
В ролях: Джон Симм, Максин Пик, Руперт Эванс, Джульет Стивенсон, Нико Мираллегро, Чарли Мерфи, Мэтт Стокоу, Эмили Бичем, Август Прю, Энтони Флэнеган, Эйнсли Ховард и др.

Описание: Рассказ о жителях одной из английских деревень на протяжении 20 века и на фоне происходящих событий в мире. Деревенские хроники показаны глазами одного человека, Берта Миддлтона, являющегося главным героем истории, которую он проживает на протяжении целого столетия. С детства и до глубочайшей старости Берт становится свидетелем рождений и смертей, любви и предательств, великих политических событий и социального подъёма, которые сделали Британию и его деревню такими, какие они сейчас.

Переведено и озвучено по заказу etvnetcom
Перевод: Doctor Joker и MartinaG
Роли озвучивали: Денис Строев, Сергей Пономарёв, Михаил Кшиштовский и Рина Гришина



Качество: SATRip
Формат: AVI
Видео кодек: XviD
Аудио кодек: AC3, MP3
Видео: 608x336 (1.81:1), 25 fps, XviD MPEG-4 ~1004 kbps avg, 0.20 bit/pixel
Аудио: Dolby AC3, 48000Hz, stereo, 192 kbps (Jaskier)
Аудио 2: MPEG Layer 3, 48000 Hz, stereo, 128 kbps Оригинал (Английский)

General
Complete name : N:The Village Season 1 MVO JaskierThe Village s01e01 Jaskier.avi
Format : AVI
Format/Info : Audio Video Interleave
File size : 565 MiB
Duration : 58mn 56s
Overall bit rate : 1 339 Kbps
Writing application : VirtualDubMod 1.5.10.2 (build 2540/release)
Writing library : VirtualDubMod build 2540/release

Video
ID : 0
Format : MPEG-4 Visual
Format profile : Advanced Simple@L5
Format settings, BVOP : 2
Format settings, QPel : No
Format settings, GMC : No warppoints
Format settings, Matrix : Default (H.263)
Muxing mode : Packed bitstream
Codec ID : XVID
Codec ID/Hint : XviD
Duration : 58mn 56s
Bit rate : 1 005 Kbps
Width : 608 pixels
Height : 336 pixels
Display aspect ratio : 16:9
Frame rate : 25.000 fps
Color space : YUV
Chroma subsampling : 4:2:0
Bit depth : 8 bits
Scan type : Progressive
Compression mode : Lossy
Bits/(Pixel*Frame) : 0.197
Stream size : 424 MiB (75%)
Writing library : XviD 1.2.1 (UTC 2008-12-04)

Audio #1
ID : 1
Format : AC-3
Format/Info : Audio Coding 3
Mode extension : CM (complete main)
Format settings, Endianness : Big
Codec ID : 2000
Duration : 58mn 56s
Bit rate mode : Constant
Bit rate : 192 Kbps
Channel(s) : 2 channels
Channel positions : Front: L R
Sampling rate : 48.0 KHz
Bit depth : 16 bits
Compression mode : Lossy
Stream size : 80.9 MiB (14%)
Alignment : Split accross interleaves
Interleave, duration : 40 ms (1.00 video frame)
Interleave, preload duration : 500 ms

Audio #2
ID : 2
Format : MPEG Audio
Format version : Version 1
Format profile : Layer 3
Mode : Joint stereo
Mode extension : MS Stereo
Codec ID : 55
Codec ID/Hint : MP3
Duration : 58mn 56s
Bit rate mode : Constant
Bit rate : 128 Kbps
Channel(s) : 2 channels
Sampling rate : 48.0 KHz
Compression mode : Lossy
Stream size : 54.0 MiB (10%)
Alignment : Aligned on interleaves
Interleave, duration : 40 ms (1.00 video frame)
Interleave, preload duration : 504 ms



Скачать Деревня.The.Village.(сезон.01).(Антония.Бёрд.Гиллис.МакКиннон).[2013.история.драма.SATRip].[MVO.(Jaskier)].torrent без регистрации
Золото ЗОЛОТАЯ РАЗДАЧА! СКАЧАННОЕ НЕ ЗАСЧИТЫВАЕТСЯ! Золото
Дата: Зарегистрирован   [ Тип: внутренний ] Как тут cкачать?
MAGNET ссылка
MAGNET ссылка


Скачать .torrent

18 KB

Статус: проверено DHT
Скачан: торрент - 127 раз, раздача полностью - 57 раз
Размер: 3,4 GB
Оценка:  - (Голосов: 0)
Поблагодарили: 1
Поделиться ссылкой на эту раздачу с друзьями:
В контактеFacebookОдноклассникиTwitterLivejournalМой МирLiveinternet
 

 
Показать сообщения:    


Вы не можете начинать темы
Вы не можете отвечать на сообщения
Вы не можете редактировать свои сообщения
Вы не можете удалять свои сообщения
Вы не можете голосовать в опросах
Вы не можете прикреплять файлы к сообщениям
Вы можете скачивать файлы