Loading...
Error

Скачать Менее привычная жизнь / A Life Less Ordinary (Дэнни Бойл / Danny Boyle) [1997, фэнтези, драма, мелодрама, комедия, криминал, WEB-DLRip] [MVO] (Первый канал) + [VO] (LeXiKC) + [DVO] + [Sub Rus, Eng] + Original Eng торрент без регистрации

 
Статистика раздачи
Размер:  1,88 GB   |    Скачан:  106 раз
Сидов:  1  [  0 KB/s  ]  
 
Автор Сообщение

leon030982

[] 

Менее привычная жизнь / A Life Less Ordinary


Год выпуска: 1997
Страна: США, Великобритания
Студия: Channel Four Films, Figment Films, Polygram Filmed Entertainment
Жанр: фэнтези, драма, мелодрама, комедия, криминал
Продолжительность: 01:43:43
Перевод 1: Профессиональный (многоголосый закадровый) [Первый канал]
Перевод 2: Одноголосый закадровый LeXiKC - [присутствует ненормативная лексика]
Перевод 3: Любительский (двухголосый закадровый)
Cубтитры: русские (LeXiKC), английские
Оригинальная аудиодорожка: английский

Режиссер: Дэнни Бойл / Danny Boyle

В ролях: Эван МакГрегор, Кэмерон Диаз, Холли Хантер, Делрой Линдо, Дэн Хедайя, Иэн МакНис, Фрэнк Кэниг, Мел Уинклер, Стенли Туччи, Энн Каллимор Декер

Описание: Между ними не было, да и не могло быть ничего общего. Селин Нэвил — избалованная, богатая девушка, для которой самым страшным ночным кошмаром является внезапно опустевшая кредитка. Роберт Льюис — разнорабочий-неудачник, у которого есть самая сокровенная мечта — написать Знаменитый Американский Бульварный Роман.
Но отец Селин уволил Роберта с работы, и тот выкрал девушку прямо у него из-под носа. Такой дерзкий поступок сразу же был замечен на Небесах. На Землю срочным порядком отправляются два ангела О`Рейли и Джексон, ответственные за «человеческие контакты», с целью проследить за развитием столь необычных отношений…




Качество: WEB-DLRip
Контейнер: AVI
Видео кодек: XviD
Аудио кодек: AC3
Видео: 720x304 (2.37:1), 23.976 fps, XviD build 73 ~1626 kbps avg, 0.31 bit/pixel
Аудио 1: 48 kHz, AC3 Dolby Digital, 2/0 (L,R) ch, ~192 kbps - [Первый канал]
Аудио 2: 48 kHz, AC3 Dolby Digital, 2/0 (L,R) ch, ~192 kbps - LeXiKC - [присутствует ненормативная лексика]
Аудио 2: 48 kHz, AC3 Dolby Digital, 2/0 (L,R) ch, ~192 kbps - DVO - [отдельно]
Аудио 2: 48 kHz, AC3 Dolby Digital, 3/2 (L,C,R,l,r) + LFE ch, ~384 kbps - Оригинал - [отдельно]

Формат субтитров: softsub (SRT)
Complete name : Menee.privychnaya.zhizn'.1997.WEBDLRip.avi
Format : AVI
Format/Info : Audio Video Interleave
File size : 1.47 GiB
Duration : 1h 43mn
Overall bit rate : 2 025 Kbps
Writing application : VirtualDubMod 1.5.10.3 | www.virtualdub-fr.org || (build 2550/release)
Writing library : VirtualDubMod build 2550/release
Video
ID : 0
Format : MPEG-4 Visual
Format profile : Advanced Simple@L5
Format settings, BVOP : 2
Format settings, QPel : No
Format settings, GMC : No warppoints
Format settings, Matrix : Default (H.263)
Codec ID : XVID
Codec ID/Hint : XviD
Duration : 1h 43mn
Bit rate : 1 627 Kbps
Width : 720 pixels
Height : 304 pixels
Display aspect ratio : 2.35:1
Frame rate : 23.976 fps
Color space : YUV
Chroma subsampling : 4:2:0
Bit depth : 8 bits
Scan type : Progressive
Compression mode : Lossy
Bits/(Pixel*Frame) : 0.310
Stream size : 1.18 GiB (80%)
Writing library : XviD 73
Audio #1
ID : 1
Format : AC-3
Format/Info : Audio Coding 3
Mode extension : CM (complete main)
Format settings, Endianness : Big
Codec ID : 2000
Duration : 1h 43mn
Bit rate mode : Constant
Bit rate : 192 Kbps
Channel(s) : 2 channels
Channel positions : Front: L R
Sampling rate : 48.0 KHz
Bit depth : 16 bits
Compression mode : Lossy
Stream size : 142 MiB (9%)
Alignment : Split accross interleaves
Interleave, duration : 42 ms (1.00 video frame)
Interleave, preload duration : 500 ms
Audio #2
ID : 2
Format : AC-3
Format/Info : Audio Coding 3
Mode extension : CM (complete main)
Format settings, Endianness : Big
Codec ID : 2000
Duration : 1h 43mn
Bit rate mode : Constant
Bit rate : 192 Kbps
Channel(s) : 2 channels
Channel positions : Front: L R
Sampling rate : 48.0 KHz
Bit depth : 16 bits
Compression mode : Lossy
Stream size : 142 MiB (9%)
Alignment : Split accross interleaves
Interleave, duration : 42 ms (1.00 video frame)
Interleave, preload duration : 500 ms



Скачать Менее.привычная.жизнь.A.Life.Less.Ordinary.(Дэнни.Бойл.Danny.Boyle).[1997.фэнтези.драма.мелодрама.комедия.криминал.WEB-DLRip].[MVO].(Первый.канал).+.[VO].(LeXiKC).+.[DVO].+.[Sub.Rus.Eng].+.Original.Eng.torrent без регистрации
Золото ЗОЛОТАЯ РАЗДАЧА! СКАЧАННОЕ НЕ ЗАСЧИТЫВАЕТСЯ! Золото
Дата: Зарегистрирован   [ Тип: внутренний ] Как тут cкачать?
MAGNET ссылка
MAGNET ссылка


Скачать .torrent

20 KB

Статус: проверено DHT
Скачан: торрент - 106 раз, раздача полностью - 27 раз
Размер: 1,88 GB
Оценка:  5 (Голосов: 1)
Поблагодарили: 3
Поделиться ссылкой на эту раздачу с друзьями:
В контактеFacebookОдноклассникиTwitterLivejournalМой МирLiveinternet
 

 
Показать сообщения:    


Вы не можете начинать темы
Вы не можете отвечать на сообщения
Вы не можете редактировать свои сообщения
Вы не можете удалять свои сообщения
Вы не можете голосовать в опросах
Вы не можете прикреплять файлы к сообщениям
Вы можете скачивать файлы