Loading...
Error

Скачать Где скрывается правда / Where the Truth Lies (Атом Эгоян) [2005, триллер, драма, криминал, детектив, DVDRip-AVC] [Dub] торрент без регистрации

 
Статистика раздачи
Размер:  1,45 GB   |    Скачан:  111 раз
Сидов:  1  [  0 KB/s  ]  
 
Автор Сообщение

Marsianka

[] 

Страна: Канада, Великобритания
Жанр: триллер, драма, криминал, детектив
Год выпуска: 2005
Продолжительность: 01:42:53
Перевод: Профессиональный (полное дублирование)
Режиссер: Атом Эгоян / Atom Egoyan
В ролях: Кевин Бейкон (Lanny), Колин Фёрт (Vince), Элисон Ломан (Karen), Дэвид Хеймен (Reuben), Рейчел Блэнчард (Maureen), Мори Чайкин (Sally Sanmarco), Соня Беннет (Bonnie), Кристин Эдамс (Alice), Дебора Гровер (Mrs. O'Flaherty), Бо Старр (Jack Scaglia), Арсинэ Ханджян (Publishing Executive), Габриель Роз (Publishing Executive)
Дублёры: Владимир Зайцев (Lanny), Игорь Тарадайкин (Vince), Татьяна Шитова (Karen), Вячеслав Баранов (Reuben), Алена Чухрай (Maureen), Борис Быстров (Sally Sanmarco), Жанна Никонова (Bonnie), Андрей Ярославцев (Jack Scaglia), Ольга Зубкова (Publishing Executive), Василий Дахненко (Publishing Executive), Владимир Ферапонтов (NY Hotel Concierge)
Описание: Молодая журналистка, заинтересовавшаяся давним инцидентом, который разрушил знаменитейший комедийный шоу-дуэт Америки, оказывается вовлеченной в загадочную историю, полную тайн, страсти, вожделения и предательств...


MPAA: R - Лицам до 17 лет обязательно присутствие взрослого

Качество: DVDRip
Контейнер: MKV

Видео: AVC, 720x436 @ 1024x436 (2.35:1), 1629 kbps, 25 fps, 0.208 bpp
Аудио: русский / AC3 / 5.1 / 48 kHz / 384 kbps
Навигация по главам: есть
Семпл

General
Unique ID : 206976402021985042024386236467622620638 (0x9BB6347DBC374D898BF3857B9492ADDE)
Complete name : C:TorrentGde.skrivaetsya.pravda.DVDRipAVC.mkv
Format : Matroska
Format version : Version 2
File size : 1.45 GiB
Duration : 1h 42mn
Overall bit rate : 2 014 Kbps
Movie name : = Где скрывается правда / Where the Truth Lies DVDRip by SC Kosmos =
Encoded date : UTC 2013-06-10 16:47:22
Writing application : mkvmerge v3.3.0 ('Language') gebaut am Mar 24 2010 14:59:24
Writing library : libebml v0.8.0 + libmatroska v0.9.0

Video
ID : 1
Format : AVC
Format/Info : Advanced Video Codec
Format profile : High@L4.1
Format settings, CABAC : Yes
Format settings, ReFrames : 10 frames
Codec ID : V_MPEG4/ISO/AVC
Duration : 1h 42mn
Bit rate : 1 629 Kbps
Width : 720 pixels
Height : 436 pixels
Display aspect ratio : 2.35:1
Frame rate : 25.000 fps
Color space : YUV
Chroma subsampling : 4:2:0
Bit depth : 8 bits
Scan type : Progressive
Bits/(Pixel*Frame) : 0.208
Stream size : 1.14 GiB (79%)
Title : Где скрывается правда / Where the Truth Lies DVDRip by SC Kosmos
Writing library : x264 core 133 r2334 a3ac64b
Encoding settings : cabac=1 / ref=10 / deblock=1:-2:-2 / analyse=0x3:0x112 / me=umh / subme=10 / psy=1 / psy_rd=1.00:0.15 / mixed_ref=1 / me_range=32 / chroma_me=1 / trellis=2 / 8x8dct=1 / cqm=0 / deadzone=21,11 / fast_pskip=0 / chroma_qp_offset=-3 / threads=12 / lookahead_threads=1 / sliced_threads=0 / nr=0 / decimate=1 / interlaced=0 / bluray_compat=0 / constrained_intra=0 / bframes=12 / b_pyramid=2 / b_adapt=1 / b_bias=0 / direct=3 / weightb=1 / open_gop=0 / weightp=1 / keyint=250 / keyint_min=25 / scenecut=40 / intra_refresh=0 / rc_lookahead=30 / rc=2pass / mbtree=1 / bitrate=1629 / ratetol=1.0 / qcomp=0.60 / qpmin=0 / qpmax=69 / qpstep=4 / cplxblur=20.0 / qblur=0.5 / vbv_maxrate=50000 / vbv_bufsize=50000 / nal_hrd=none / ip_ratio=1.40 / aq=1:1.00 / zones=148250,154326,b=0.26
Language : English
Default : No
Forced : No

Audio
ID : 2
Format : AC-3
Format/Info : Audio Coding 3
Mode extension : CM (complete main)
Codec ID : A_AC3
Duration : 1h 42mn
Bit rate mode : Constant
Bit rate : 384 Kbps
Channel(s) : 6 channels
Channel positions : Front: L C R, Side: L R, LFE
Sampling rate : 48.0 KHz
Bit depth : 16 bits
Compression mode : Lossy
Stream size : 283 MiB (19%)
Language : Russian
Default : Yes
Forced : No

Menu
00:00:00.000 : en:Chapter 01
00:03:01.000 : en:Chapter 02
00:08:33.920 : en:Chapter 03
00:15:55.360 : en:Chapter 04
00:23:22.560 : en:Chapter 05
00:30:45.080 : en:Chapter 06
00:35:11.800 : en:Chapter 07
00:41:20.160 : en:Chapter 08
00:48:37.800 : en:Chapter 09
00:53:43.160 : en:Chapter 10
01:01:59.120 : en:Chapter 11
01:11:52.520 : en:Chapter 12
01:15:48.240 : en:Chapter 13
01:23:14.600 : en:Chapter 14
01:28:40.280 : en:Chapter 15
01:35:49.320 : en:Chapter 16

x264 [info]: frame I:1144 Avg QP:16.85 size: 54689
x264 [info]: frame P:58992 Avg QP:20.08 size: 15349
x264 [info]: frame B:94190 Avg QP:22.16 size: 3058




Скачать Где.скрывается.правда.Where.the.Truth.Lies.(Атом.Эгоян).[2005.триллер.драма.криминал.детектив.DVDRip-AVC].[Dub].torrent без регистрации
Золото ЗОЛОТАЯ РАЗДАЧА! СКАЧАННОЕ НЕ ЗАСЧИТЫВАЕТСЯ! Золото
Дата: Зарегистрирован   [ Тип: внутренний ] Как тут cкачать?
MAGNET ссылка
MAGNET ссылка


Скачать .torrent

15 KB

Статус: проверено DHT
Скачан: торрент - 111 раз, раздача полностью - 21 раз
Размер: 1,45 GB
Оценка:  - (Голосов: 0)
Поблагодарили: 1
Поделиться ссылкой на эту раздачу с друзьями:
В контактеFacebookОдноклассникиTwitterLivejournalМой МирLiveinternet
 

 
Показать сообщения:    


Вы не можете начинать темы
Вы не можете отвечать на сообщения
Вы не можете редактировать свои сообщения
Вы не можете удалять свои сообщения
Вы не можете голосовать в опросах
Вы не можете прикреплять файлы к сообщениям
Вы можете скачивать файлы