Loading...
Error

Скачать Дилетанты / Amateur (Хэл Хартли) [1994, триллер, драма, комедия, криминал, BDRip-AVC] [DVO]+[Оригинал]+[Sub] торрент без регистрации

 
Статистика раздачи
Размер:  1,45 GB   |    Скачан:  114 раз
Сидов:  1  [  0 KB/s  ]  
 
Автор Сообщение

Marsianka

[] 

Дилетанты / Amateur (1994) BDRip-AVC

Информация о фильме
Название: Дилетанты
Оригинальное название: Amateur
Год выхода: 1994
Жанр: триллер, драма, комедия, криминал
Режиссер: Хэл Хартли

В ролях: Изабель Юппер, Мартин Донован, Элина Ловенсон, Дэмиэн Янг, Чак Монтгомери, Дэйв Симондз, Памела Стюарт, Эрика Гимпел, Жан Лесли Хардинг, Терри Александр

О фильме: Когда Томас приходит в себя, он обнаруживает, что весь в крови и совершенно ничего не помнит. Его берет под свою опеку Изабель, бывшая монахиня, считающая себя девственницей-нимфоманкой и зарабатывающая на жизнь сочинением рассказов для порнографического журнала.

Восстанавливая по кусочкам прошлое Томаса, Изабель узнает, что он был режиссером крутого порно, и что его жена знойная пронозвезда София, уверенная, что убила мужа, пустилась в бега. А тем временем банда киллеров пытается прикончить Томаса из-за таинственных дискет стоимостью в миллион долларов.



Страна: США, Великобритания, Франция
Продолжительность: 01:45:09
Перевод: Профессиональный (двухголосый закадровый), Оригинал (Английский)

Файл
Кодек: x.264
Качество: BDRip-AVC
Видео: 1024x576 (16:9), 23,976 fps, 1591 kbps, 0.113 bit/pixel
Аудио #1: 48 kHz, AC3 Dolby Digital, 2 ch, ~192.00 kbps (Русский)
Аудио #2: 48 kHz, AC3 Dolby Digital, 2 ch, ~192.00 kbps (Английский)
Субтитры: Английские (отключаемые)
&
Общее
Уникальный идентификатор : 198680964558074225610990023568273836775 (0x95788FD8D2CE38278617D8A963220AE7)
Полное имя : D:Amateur.1994.BDRip-AVC.mkv
Формат : Matroska
Версия формата : Version 4 / Version 2
Размер файла : 1,45 Гбайт
Продолжительность : 1 ч. 45 м.
Общий поток : 1974 Кбит/сек
Название фильма : Дилетанты / Amateur (1994) BDRip-AVC rip by Rulya74
Дата кодирования : UTC 2013-06-11 05:45:57
Программа кодирования : mkvmerge v6.2.0 ('Promised Land') built on Apr 28 2013 12:22:01
Библиотека кодирования : libebml v1.3.0 + libmatroska v1.4.0

Видео
Идентификатор : 1
Формат : AVC
Формат/Информация : Advanced Video Codec
Профиль формата : High@L4.1
Параметр CABAC формата : Да
Параметр ReFrames формата : 12 кадров
Идентификатор кодека : V_MPEG4/ISO/AVC
Продолжительность : 1 ч. 45 м.
Битрейт : 1591 Кбит/сек
Ширина : 1024 пикселя
Высота : 576 пикселей
Соотношение сторон : 16:9
Режим частоты кадров : Постоянный
Частота кадров : 23,976 кадра/сек
Цветовое пространство : YUV
Субдискретизация насыщенности : 4:2:0
Битовая глубина : 8 бит
Тип развёртки : Прогрессивная
Бит/(Пиксели*Кадры) : 0.113
Размер потока : 1,14 Гбайт (79%)
Библиотека кодирования : x264 core 133 r2334 a3ac64b
Настройки программы : cabac=1 / ref=12 / deblock=1:-3:-3 / analyse=0x3:0x113 / me=umh / subme=10 / psy=1 / psy_rd=1.26:0.08 / mixed_ref=1 / me_range=32 / chroma_me=1 / trellis=2 / 8x8dct=1 / cqm=0 / deadzone=21,11 / fast_pskip=0 / chroma_qp_offset=-3 / threads=8 / lookahead_threads=1 / sliced_threads=0 / nr=0 / decimate=1 / interlaced=0 / bluray_compat=0 / constrained_intra=0 / bframes=7 / b_pyramid=2 / b_adapt=2 / b_bias=0 / direct=3 / weightb=1 / open_gop=0 / weightp=0 / keyint=240 / keyint_min=22 / scenecut=40 / intra_refresh=0 / rc_lookahead=40 / rc=2pass / mbtree=0 / bitrate=1591 / ratetol=1.0 / qcomp=0.60 / qpmin=0 / qpmax=69 / qpstep=4 / cplxblur=20.0 / qblur=0.5 / vbv_maxrate=62500 / vbv_bufsize=78125 / nal_hrd=none / ip_ratio=1.40 / pb_ratio=1.30 / aq=2:1.00
Default : Да
Forced : Нет

Аудио #1
Идентификатор : 2
Формат : AC-3
Формат/Информация : Audio Coding 3
Расширение режима : CM (complete main)
Параметр Endianness формата : Big
Идентификатор кодека : A_AC3
Продолжительность : 1 ч. 45 м.
Вид битрейта : Постоянный
Битрейт : 192 Кбит/сек
Каналы : 2 канала
Расположение каналов : Front: L R
Частота : 48,0 КГц
Битовая глубина : 16 бит
Метод сжатия : С потерями
Размер потока : 144 Мбайт (10%)
Заголовок : Профессиональный (двухголосый закадровый)
Язык : Russian
Default : Да
Forced : Нет

Аудио #2
Идентификатор : 3
Формат : AC-3
Формат/Информация : Audio Coding 3
Расширение режима : CM (complete main)
Параметр Endianness формата : Big
Идентификатор кодека : A_AC3
Продолжительность : 1 ч. 45 м.
Вид битрейта : Постоянный
Битрейт : 192 Кбит/сек
Каналы : 2 канала
Расположение каналов : Front: L R
Частота : 48,0 КГц
Битовая глубина : 16 бит
Метод сжатия : С потерями
Размер потока : 144 Мбайт (10%)
Заголовок : Оригинал
Язык : English
Default : Нет
Forced : Нет

Текст
Идентификатор : 4
Формат : UTF-8
Идентификатор кодека : S_TEXT/UTF8
Идентификатор кодека/Информация : UTF-8 Plain Text
Язык : English
Default : Да
Forced : Нет



Скачать Дилетанты.Amateur.(Хэл.Хартли).[1994.триллер.драма.комедия.криминал.BDRip-AVC].[DVO]+[Оригинал]+[Sub].torrent без регистрации
Золото ЗОЛОТАЯ РАЗДАЧА! СКАЧАННОЕ НЕ ЗАСЧИТЫВАЕТСЯ! Золото
Дата: Зарегистрирован   [ Тип: внутренний ] Как тут cкачать?
MAGNET ссылка
MAGNET ссылка


Скачать .torrent

15 KB

Статус: проверено DHT
Скачан: торрент - 114 раз, раздача полностью - 3 раз
Размер: 1,45 GB
Оценка:  - (Голосов: 0)
Поблагодарили: 1
Поделиться ссылкой на эту раздачу с друзьями:
В контактеFacebookОдноклассникиTwitterLivejournalМой МирLiveinternet
 

 
Показать сообщения:    


Вы не можете начинать темы
Вы не можете отвечать на сообщения
Вы не можете редактировать свои сообщения
Вы не можете удалять свои сообщения
Вы не можете голосовать в опросах
Вы не можете прикреплять файлы к сообщениям
Вы можете скачивать файлы