Loading...
Error

Скачать Рухнувшие Небеса / Falling Skies (сезон 3) (Грег Биман, Холли Дэйл) [2013, Боевик, Фантастика, Триллер, HDTVRip] [Original]+[Rus (Notabenoid) & Eng Subs] торрент без регистрации

 
Статистика раздачи
Размер:  4,02 GB   |    Скачан:  121 раз
Сидов:  1  [  0 KB/s  ]  
 
Автор Сообщение

МихаНЕзатор

[] 

Рухнувшие Небеса / Falling Skies


Год выпуска: 2013
Страна: США, Канада
Жанр: Боевик, Фантастика, Триллер
Продолжительность: ~00:42:00
Перевод: Субтитры
Русские субтитры: есть
Переводчики: Rosezz, an0nym0us, RatherGood, Tred, small_arrow
Режиссёр: Грег Биман, Холли Дэйл

В ролях: Ноа Уайли, Максим Найт, Сейшелл Гэбриел, Терри О’Куинн, Коннор Джессуп, Питер Шинкода, Дрю Рой, Мун Бладгуд, Уилл Пэттон, Сара Картер, Колин Каннингэм и др.

Описание: Действие происходит после вторжение инопланетян. В главной роли вдовец Том Мэйсон должен спастись сам, и спасти своих сыновей(16-летний Хэл и 8-летний Мэтт) от вторжения инопланетян, развязавших войну в Бостоне. Они должны скрываться от шатлов инопланетян, механических роботов, и skitters(существ-насекомых)которые снабжены некием аэросенсером, который может засекать скопления людей по 500 человек, таким образом людям пришлось разделится на группы по 300 человек. Том является заместителем командующего одного из групп. Его жена(суррогатная мать Хэла и Мэтта) Анна, психолог, и занимается состоянием беженцев. Вивер - жестокий лидер группы Тома, потерявший семью. Карен - подружка Хэла, вместе занимаются разведкой на мотоциклах, и Лурдес девчёнка увлеченная Хэлом.
Интригующая концовка 2 сезона сериала Рухнувшие небеса вызвала еще больше вопросов. И основной вопрос заключается в том, на чьей стороне будут те Скиттеры, которые приземлились? У людей наконец появится надежда или же Земле грозит неминуемый крах? Именно на эти вопросы будут даны ответы в Рухнувшие небеса 3 сезон. Режиссером фантастической драмы по прежнему остается известный всему миру Стивен Спилберг.



Качество: HDTVRip
Формат: AVI
Видео кодек: XviD
Аудио кодек: MP3
Видео: 720x400 (1.80:1), 23.976 fps, XviD build 50 ~1350 kbps avg, 0.20 bit/pixel
Аудио: 48 kHz, MPEG Layer 3, 2 ch, ~128.00 kbps avg

АНОНСЫ ПОПУЛЯРНЫХ РАЗДАЧ


Торрент обновлён, добавлена 10-я-я серия!
General
Complete name : C:\Documents and Settings\Рабочий стол\FILM\СЕРИАЛЫ\Falling Skies\Falling.Skies.Season.3\Falling.Skies.S03E01E02.avi
Format : AVI
Format/Info : Audio Video Interleave
File size : 902 MiB
Duration : 1h 24mn
Overall bit rate : 1 488 Kbps
Writing application : VirtualDubMod 1.5.10.3 | www.virtualdub-fr.org || (build 2550/release)
Writing library : VirtualDubMod build 2550/release
Video
ID : 0
Format : MPEG-4 Visual
Format profile : Advanced Simple@L5
Format settings, BVOP : 1
Format settings, QPel : No
Format settings, GMC : No warppoints
Format settings, Matrix : Default (MPEG)
Codec ID : XVID
Codec ID/Hint : XviD
Duration : 1h 24mn
Bit rate : 1 351 Kbps
Width : 720 pixels
Height : 400 pixels
Display aspect ratio : 16:9
Frame rate : 23.976 fps
Color space : YUV
Chroma subsampling : 4:2:0
Bit depth : 8 bits
Scan type : Progressive
Compression mode : Lossy
Bits/(Pixel*Frame) : 0.196
Stream size : 819 MiB (91%)
Writing library : XviD 1.2.1 (UTC 2008-12-04)
Audio
ID : 1
Format : MPEG Audio
Format version : Version 1
Format profile : Layer 3
Codec ID : 55
Codec ID/Hint : MP3
Duration : 1h 24mn
Bit rate mode : Constant
Bit rate : 128 Kbps
Channel(s) : 2 channels
Sampling rate : 48.0 KHz
Compression mode : Lossy
Stream size : 77.6 MiB (9%)
Alignment : Aligned on interleaves
Interleave, duration : 42 ms (1.00 video frame)
Interleave, preload duration : 504 ms
Writing library : LAME3.99
Encoding settings : -m s -V 4 -q 2 -lowpass 17 -b 128
Внимание! Раздача ведётся путём добавления новых серий; при каждом добавлении создаётся новый торрент. Чтобы начать докачку новой серии, пользователям необходимо сделать следующее:
(1) остановить скачивание,
(2) удалить старый торрент у себя из клиента (старые серии удалять не надо),
(3) скачать новый торрент и запустить его у себя в клиенте вместо старого, при этом указать клиенту путь в старую папку куда и должно происходить скачивание новых серий.
Ваш клиент при этом должен произвести хеширование (проверку) старой папки (если не производит сам - помогите ему сделать это), и будет докачивать только те серии которых у вас ещё нет. Старые серии при этом не удаляются, а продолжают раздаваться!
Eсли вы уже удалили старые серии, то предотвратить повторную закачку старых серий можно, отжав галочку в соответствующих местах при запуске нового торрента. По возможности, желательно не удалять старые серии как можно дольше чтобы релизёр не столько продолжал раздавать старые серии, а смог сконцентрироваться на новых.



Скачать Рухнувшие.Небеса.Falling.Skies.(сезон.3).(Грег.Биман.Холли.Дэйл).[2013.Боевик.Фантастика.Триллер.HDTVRip].[Original]+[Rus.(Notabenoid).&.Eng.Subs].torrent без регистрации
Золото ЗОЛОТАЯ РАЗДАЧА! СКАЧАННОЕ НЕ ЗАСЧИТЫВАЕТСЯ! Золото
Дата: Зарегистрирован   [ Тип: внутренний ] Как тут cкачать?
MAGNET ссылка
MAGNET ссылка


Скачать .torrent

22 KB

Статус: проверено DHT
Скачан: торрент - 121 раз, раздача полностью - 1 раз
Размер: 4,02 GB
Оценка:  - (Голосов: 0)
Поблагодарили: 1
Поделиться ссылкой на эту раздачу с друзьями:
В контактеFacebookОдноклассникиTwitterLivejournalМой МирLiveinternet
 

 
Показать сообщения:    


Вы не можете начинать темы
Вы не можете отвечать на сообщения
Вы не можете редактировать свои сообщения
Вы не можете удалять свои сообщения
Вы не можете голосовать в опросах
Вы не можете прикреплять файлы к сообщениям
Вы можете скачивать файлы