Loading...
Error

Скачать Рухнувшие Небеса / Falling Skies (сезон 03) (Грег Биман, Холли Дэйл) [2013, Боевик, Фантастика, Триллер, HDTVRip] [720p] [Original]+[Rus (Notabenoid) & Eng Subs] торрент без регистрации

 
Статистика раздачи
Размер:  12,06 GB   |    Скачан:  123 раза
Сидов:  1  [  0 KB/s  ]  
 
Автор Сообщение

МихаНЕзатор

[] 

Рухнувшие Небеса / Falling Skies


Год выпуска: 2013
Страна: США, Канада
Жанр: Боевик, Фантастика, Триллер
Продолжительность: ~00:42:00
Перевод: Субтитры
Русские субтитры: есть
Переводчики: Rosezz, an0nym0us, RatherGood, Tred, small_arrow
Режиссёр: Грег Биман, Холли Дэйл

В ролях: Ноа Уайли, Максим Найт, Сейшелл Гэбриел, Терри О’Куинн, Коннор Джессуп, Питер Шинкода, Дрю Рой, Мун Бладгуд, Уилл Пэттон, Сара Картер, Колин Каннингэм и др.

Описание: Действие происходит после вторжение инопланетян. В главной роли вдовец Том Мэйсон должен спастись сам, и спасти своих сыновей(16-летний Хэл и 8-летний Мэтт) от вторжения инопланетян, развязавших войну в Бостоне. Они должны скрываться от шатлов инопланетян, механических роботов, и skitters(существ-насекомых)которые снабжены некием аэросенсером, который может засекать скопления людей по 500 человек, таким образом людям пришлось разделится на группы по 300 человек. Том является заместителем командующего одного из групп. Его жена(суррогатная мать Хэла и Мэтта) Анна, психолог, и занимается состоянием беженцев. Вивер - жестокий лидер группы Тома, потерявший семью. Карен - подружка Хэла, вместе занимаются разведкой на мотоциклах, и Лурдес девчёнка увлеченная Хэлом.
Интригующая концовка 2 сезона сериала Рухнувшие небеса вызвала еще больше вопросов. И основной вопрос заключается в том, на чьей стороне будут те Скиттеры, которые приземлились? У людей наконец появится надежда или же Земле грозит неминуемый крах? Именно на эти вопросы будут даны ответы в Рухнувшие небеса 3 сезон. Режиссером фантастической драмы по прежнему остается известный всему миру Стивен Спилберг.



Качество: HDTVRip 720p
Формат: MKV
Видео кодек: H.264
Аудио кодек: AC3
Видео: 1280x720 (16:9), 23.976 fps, ~4308 kbps, 0.195 bit/pixel
Аудио: 48 kHz, AC3, 6 ch, ~448.00 kbps avg

АНОНСЫ ПОПУЛЯРНЫХ РАЗДАЧ


Торрент обновлён, добавлена 10-я серия!
General
Unique ID : 101262926910852552756400971696795333601 (0x4C2E87C302F77C2C4D222910A0C8B3E1)
Complete name : C:\Documents and Settings\Рабочий стол\FILM\СЕРИАЛЫ\Falling Skies\Falling.Skies.S03E01E02.720p.mkv
Format : Matroska
Format version : Version 4 / Version 2
File size : 2.87 GiB
Duration : 1h 24mn
Overall bit rate : 4 852 Kbps
Encoded date : UTC 2013-06-10 05:56:44
Writing application : mkvmerge v6.0.0 ('Coming Up For Air') built on Jan 20 2013 10:28:01
Writing library : libebml v1.3.0 + libmatroska v1.4.0
Video
ID : 1
Format : AVC
Format/Info : Advanced Video Codec
Format profile : High@L4.1
Format settings, CABAC : Yes
Format settings, ReFrames : 5 frames
Codec ID : V_MPEG4/ISO/AVC
Duration : 1h 24mn
Bit rate : 4 308 Kbps
Width : 1 280 pixels
Height : 720 pixels
Display aspect ratio : 16:9
Frame rate mode : Constant
Frame rate : 23.976 fps
Color space : YUV
Chroma subsampling : 4:2:0
Bit depth : 8 bits
Scan type : Progressive
Bits/(Pixel*Frame) : 0.195
Stream size : 2.55 GiB (89%)
Writing library : x264 core 133 r2334 a3ac64b
Encoding settings : cabac=1 / ref=5 / deblock=1:0:0 / analyse=0x3:0x113 / me=umh / subme=8 / psy=1 / psy_rd=1.00:0.00 / mixed_ref=1 / me_range=16 / chroma_me=1 / trellis=1 / 8x8dct=1 / cqm=0 / deadzone=21,11 / fast_pskip=1 / chroma_qp_offset=-2 / threads=18 / lookahead_threads=3 / sliced_threads=0 / nr=0 / decimate=1 / interlaced=0 / bluray_compat=0 / constrained_intra=0 / bframes=3 / b_pyramid=2 / b_adapt=2 / b_bias=0 / direct=3 / weightb=1 / open_gop=0 / weightp=2 / keyint=250 / keyint_min=23 / scenecut=40 / intra_refresh=0 / rc_lookahead=50 / rc=crf / mbtree=1 / crf=18.0 / qcomp=0.60 / qpmin=0 / qpmax=69 / qpstep=4 / ip_ratio=1.40 / aq=1:1.00
Language : English
Default : Yes
Forced : No
Matrix coefficients : BT.709
Audio
ID : 2
Format : AC-3
Format/Info : Audio Coding 3
Mode extension : CM (complete main)
Format settings, Endianness : Big
Codec ID : A_AC3
Duration : 1h 24mn
Bit rate mode : Constant
Bit rate : 448 Kbps
Channel(s) : 6 channels
Channel positions : Front: L C R, Side: L R, LFE
Sampling rate : 48.0 KHz
Bit depth : 16 bits
Compression mode : Lossy
Stream size : 272 MiB (9%)
Default : Yes
Forced : No
Внимание! Раздача ведётся путём добавления новых серий; при каждом добавлении создаётся новый торрент. Чтобы начать докачку новой серии, пользователям необходимо сделать следующее:
(1) остановить скачивание,
(2) удалить старый торрент у себя из клиента (старые серии удалять не надо),
(3) скачать новый торрент и запустить его у себя в клиенте вместо старого, при этом указать клиенту путь в старую папку куда и должно происходить скачивание новых серий.
Ваш клиент при этом должен произвести хеширование (проверку) старой папки (если не производит сам - помогите ему сделать это), и будет докачивать только те серии которых у вас ещё нет. Старые серии при этом не удаляются, а продолжают раздаваться!
Eсли вы уже удалили старые серии, то предотвратить повторную закачку старых серий можно, отжав галочку в соответствующих местах при запуске нового торрента. По возможности, желательно не удалять старые серии как можно дольше чтобы релизёр не столько продолжал раздавать старые серии, а смог сконцентрироваться на новых.



Скачать Рухнувшие.Небеса.Falling.Skies.(сезон.03).(Грег.Биман.Холли.Дэйл).[2013.Боевик.Фантастика.Триллер.HDTVRip].[720p].[Original]+[Rus.(Notabenoid).&.Eng.Subs].torrent без регистрации
Золото ЗОЛОТАЯ РАЗДАЧА! СКАЧАННОЕ НЕ ЗАСЧИТЫВАЕТСЯ! Золото
Дата: Зарегистрирован   [ Тип: внутренний ] Как тут cкачать?
MAGNET ссылка
MAGNET ссылка


Скачать .torrent

62 KB

Статус: проверено DHT
Скачан: торрент - 123 раз, раздача полностью - 0 раз
Размер: 12,06 GB
Оценка:  - (Голосов: 0)
Поблагодарили: 0
Поделиться ссылкой на эту раздачу с друзьями:
В контактеFacebookОдноклассникиTwitterLivejournalМой МирLiveinternet
 

 
Показать сообщения:    


Вы не можете начинать темы
Вы не можете отвечать на сообщения
Вы не можете редактировать свои сообщения
Вы не можете удалять свои сообщения
Вы не можете голосовать в опросах
Вы не можете прикреплять файлы к сообщениям
Вы можете скачивать файлы