Loading...
Error

Скачать Рухнувшие небеса / Falling Skies (сезон 03) (Грег Биман) [2013, фантастика, боевик, WEB-DL] [1080p] [Original]+[Rus Subs (notabenoid)]+[Eng Subs] торрент без регистрации

 
Статистика раздачи
Размер:  16,21 GB   |    Скачан:  128 раз
Сидов:  1  [  0 KB/s  ]  
 
Автор Сообщение

МихаНЕзатор

[] 

Рухнувшие небеса / Falling Skies


Год выпуска: 2013
Страна: США
Жанр: Фантастика, боевик
Продолжительность: 00:42:00
Перевод: Субтитры
Субтитры: Русские (Notabenoid), Английские
Режиссёр: Грег Биман, Холли Дейл
Продюсер Стивен Спилберг

В ролях: Ноа Уайли, Мун Бладгуд, Максим Найт, Уилл Пэттон, Сара Картер, Дрю Рой, Сейшелл Гэбриел, Питер Шинкода, Мфо Коахо, Колин Каннингэм и другие
Описание: Инопланетное вторжение стало для землян полной неожиданностью. Несколько выживших объединяются, чтобы ежедневно бороться за выживание и попытаться наладить связь с такими же как они «счастливчиками» из других городов, и дать отпор захватчикам из космоса.



Качество: WEB-DL 1080p
Формат: MKV
Видео кодек: H.264
Аудио кодек: AC3
Видео: 1920x1080 (16:9), 23.976 fps, 5084 kbps, 0.195 bit/pixel
Аудио: AC3, 48 kHz, 6 ch, 384 kbps

АНОНСЫ ПОПУЛЯРНЫХ РАЗДАЧ


Торрент обновлён, добавлена 10-я серия!
General
Unique ID : 182661447568928597604581538238613530665 (0x896B50AE0D211AEDA3054F03A2EDA829)
Complete name : D:\Downloads\Falling.Skies.S03E01.1080p.WEB-DL.DD5.1.H.264-KiNGS\Falling.Skies.S03E01.1080p.WEB-DL.DD5.1.H.264-KiNGS.mkv
Format : Matroska
Format version : Version 4 / Version 2
File size : 1.64 GiB
Duration : 42mn 7s
Overall bit rate : 5 579 Kbps
Encoded date : UTC 2013-06-10 07:59:27
Writing application : mkvmerge v6.2.0 ('Promised Land') built on Apr 28 2013 12:22:01
Writing library : libebml v1.3.0 + libmatroska v1.4.0
Video
ID : 2
Format : AVC
Format/Info : Advanced Video Codec
Format profile : High@L4.0
Format settings, CABAC : Yes
Format settings, ReFrames : 4 frames
Format settings, GOP : N=2
Codec ID : V_MPEG4/ISO/AVC
Duration : 42mn 7s
Bit rate : 5 084 Kbps
Width : 1 920 pixels
Height : 1 080 pixels
Display aspect ratio : 16:9
Frame rate mode : Constant
Frame rate : 23.976 fps
Color space : YUV
Chroma subsampling : 4:2:0
Bit depth : 8 bits
Scan type : Progressive
Bits/(Pixel*Frame) : 0.102
Stream size : 1.50 GiB (91%)
Language : English
Default : Yes
Forced : No
Color primaries : BT.709
Transfer characteristics : BT.709
Matrix coefficients : BT.709
Audio
ID : 3
Format : AC-3
Format/Info : Audio Coding 3
Mode extension : CM (complete main)
Format settings, Endianness : Big
Codec ID : A_AC3
Duration : 42mn 7s
Bit rate mode : Constant
Bit rate : 384 Kbps
Channel(s) : 6 channels
Channel positions : Front: L C R, Side: L R, LFE
Sampling rate : 48.0 KHz
Bit depth : 16 bits
Compression mode : Lossy
Stream size : 116 MiB (7%)
Language : English
Default : Yes
Forced : No
Text
ID : 1
Format : UTF-8
Codec ID : S_TEXT/UTF8
Codec ID/Info : UTF-8 Plain Text
Default : Yes
Forced : No
При каждом добавлении создаётся новый торрент. Чтобы начать закачку новой серии, необходимо сделать следующее:
(1) остановить скачивание,
(2) удалить старый торрент у себя из клиента (старые серии удалять не надо),
(3) скачать новый торрент и запустить его в клиенте вместо старого, при этом указать клиенту путь в старую папку куда и должно происходить скачивание новых серий.
Ваш клиент при этом должен произвести хеширование (проверку) старой папки (если не производит сам - помогите ему сделать это), и будет докачивать только те серии которых у вас ещё нет. Старые серии при этом не удаляются, а продолжают раздаваться! Eсли вы уже удалили старые серии, то предотвратить повторную закачку старых серий можно, отжав галочку в соответствующих местах при запуске нового торрента.



Скачать Рухнувшие.небеса.Falling.Skies.(сезон.03).(Грег.Биман).[2013.фантастика.боевик.WEB-DL].[1080p].[Original]+[Rus.Subs.(notabenoid)]+[Eng.Subs].torrent без регистрации
Золото ЗОЛОТАЯ РАЗДАЧА! СКАЧАННОЕ НЕ ЗАСЧИТЫВАЕТСЯ! Золото
Дата: Зарегистрирован   [ Тип: внутренний ] Как тут cкачать?
MAGNET ссылка
MAGNET ссылка


Скачать .torrent

82 KB

Статус: проверено DHT
Скачан: торрент - 128 раз, раздача полностью - 0 раз
Размер: 16,21 GB
Оценка:  - (Голосов: 0)
Поблагодарили: 0
Поделиться ссылкой на эту раздачу с друзьями:
В контактеFacebookОдноклассникиTwitterLivejournalМой МирLiveinternet
 

 
Показать сообщения:    


Вы не можете начинать темы
Вы не можете отвечать на сообщения
Вы не можете редактировать свои сообщения
Вы не можете удалять свои сообщения
Вы не можете голосовать в опросах
Вы не можете прикреплять файлы к сообщениям
Вы можете скачивать файлы