Loading...
Error

Скачать Англичанин / The Limey (Стивен Содерберг / Steven Soderbergh) [1999г, триллер, драма, криминал, D-TheaterRip] [DVO] (R5) + [DVO] + [AVO] (Гаврилов) торрент без регистрации

 
Статистика раздачи
Размер:  1,82 GB   |    Скачан:  106 раз
Сидов:  1  [  0 KB/s  ]  
 
Автор Сообщение

leon030982

[] 

Англичанин / The Limey

Год выпуска: 1999

Страна: США
Жанр: триллер, драма, криминал, детектив
Продолжительность: 01:29:01
Перевод 1: Профессиональный (двухголосый, закадровый) [R5]
Перевод 2: Профессиональный (двухголосый, закадровый) [отдельно]
Перевод 3: Авторский (одноголосый, закадровый) [Гаврилов] [отдельно]
Оригинальная (английская) дорожка
Субтитры: русские, английские - softsub (SRT)
Режиссер: Стивен Содерберг / Steven Soderbergh

В ролях: Теренс Стэмп (Wilson), Лесли Энн Уоррен (Elaine), Луис Гузман (Eduardo Roel), Бэрри Ньюман (Jim Avery), Джо Даллесандро (Uncle John), Никки Кэтт (Stacy the Hitman), Питер Фонда (Terry Valentine), Амелия Хайнл (Adhara), Мелисса Джордж (Jennifer «Jenny» Wilson), Уильям Лаккинг (Warehouse Foreman), Мэттью Кимбро (Tom Johannson), Джон Роботэм (Rick)

Описание: Уилсон только что вышел из тюрьмы, в которой отсидел девять лет своей жизни. Еще в тюрьме он узнал о гибели своей единственной дочери. Убежденный в том, что смерть ее была результатом вовсе не несчастного случая, он отправляется в Лос-Анджелес, чтобы расквитаться за дочь. С помощью Эдуардо, единственного человека, который что-то знал о последних днях жизни Дженни, Уилсон начинает поиск виновных в ее смерти…
Рейтинг:
kinopoisk.ru: 6.558 (403)
imdb.com: 7.0 (19 286)

Качество: DTheater Rip
Формат: AVI → //SAMPLE//
Видео: 704x384 (1.83:1), 23.976 fps, XviD build 65 ~1561 kbps avg, 0.24 bit/pixel
Аудио RUS: 48 kHz, AC3 Dolby Digital, 3/2 (L,C,R,l,r) + LFE ch, ~384 kbps - DVO (R5)
Аудио ENG: 48 kHz, AC3 Dolby Digital, 3/2 (L,C,R,l,r) + LFE ch, ~384 kbps - Original
Аудио RUS: 48 kHz, AC3 Dolby Digital, 3/2 (L,C,R,l,r) + LFE ch, ~384 kbps - DVO - отдельно
Аудио RUS: 48 kHz, AC3 Dolby Digital, 2/0 (L,R) ch, ~192 kbps - Гаврилов - отдельно
Общее
Полное имя : H:\Video\AVI\Films\Anglichanin.1999.DUAL.D-TheaterRip.XviD.Ac3.-AllFilms\Anglichanin.1999.DUAL.D-TheaterRip.XviD.AC3.-AllFilms.avi
Формат : AVI
Формат/Информация : Audio Video Interleave
Размер файла : 1,46 Гбайт
Продолжительность : 1 ч. 29 м.
Общий поток : 2345 Кбит/сек
Программа кодирования : VirtualDubMod 1.5.10.3 | www.virtualdub-fr.org || (build 2550/release)
Библиотека кодирования : VirtualDubMod build 2550/release
Видео
Идентификатор : 0
Формат : MPEG-4 Visual
Профиль формата : Advanced Simple@L5
Параметр BVOP формата : 1
Параметр QPel формата : Нет
Параметр GMC формата : Без точки перехода
Параметр матрицы формата : Выборочная
Идентификатор кодека : XVID
Идентификатор кодека/Подсказка : XviD
Продолжительность : 1 ч. 29 м.
Битрейт : 1563 Кбит/сек
Ширина : 704 пикселя
Высота : 384 пикселя
Соотношение сторон : 1,85:1
Частота кадров : 23,976 кадра/сек
Цветовое пространство : YUV
Субдискретизация насыщенности : 4:2:0
Битовая глубина : 8 бит
Тип развёртки : Прогрессивная
Метод сжатия : С потерями
Бит/(Пиксели*Кадры) : 0.241
Размер потока : 995 Мбайт (67%)
Библиотека кодирования : XviD 65
Аудио #1
Идентификатор : 1
Формат : AC-3
Формат/Информация : Audio Coding 3
Расширение режима : CM (complete main)
Параметр Endianness формата : Big
Идентификатор кодека : 2000
Продолжительность : 1 ч. 29 м.
Вид битрейта : Постоянный
Битрейт : 384 Кбит/сек
Каналы : 6 каналов
Расположение каналов : Front: L C R, Side: L R, LFE
Частота : 48,0 КГц
Битовая глубина : 16 бит
Метод сжатия : С потерями
Размер потока : 244 Мбайт (16%)
Выравнивание : Разделение по промежуткам
Продолжительность промежутка : 42 мс. (1,00 видеокадр)
Время предзагрузки промежутка : 500 мс.
Аудио #2
Идентификатор : 2
Формат : AC-3
Формат/Информация : Audio Coding 3
Расширение режима : CM (complete main)
Параметр Endianness формата : Big
Идентификатор кодека : 2000
Продолжительность : 1 ч. 29 м.
Вид битрейта : Постоянный
Битрейт : 384 Кбит/сек
Каналы : 6 каналов
Расположение каналов : Front: L C R, Side: L R, LFE
Частота : 48,0 КГц
Битовая глубина : 16 бит
Метод сжатия : С потерями
Размер потока : 244 Мбайт (16%)
Выравнивание : Разделение по промежуткам
Продолжительность промежутка : 42 мс. (1,00 видеокадр)
Время предзагрузки промежутка : 500 мс.



Скачать Англичанин.The.Limey.(Стивен.Содерберг.Steven.Soderbergh).[1999г.триллер.драма.криминал.D-TheaterRip].[DVO].(R5).+.[DVO].+.[AVO].(Гаврилов).torrent без регистрации
Золото ЗОЛОТАЯ РАЗДАЧА! СКАЧАННОЕ НЕ ЗАСЧИТЫВАЕТСЯ! Золото
Дата: Зарегистрирован   [ Тип: внутренний ] Как тут cкачать?
MAGNET ссылка
MAGNET ссылка


Скачать .torrent

38 KB

Статус: проверено DHT
Скачан: торрент - 106 раз, раздача полностью - 10 раз
Размер: 1,82 GB
Оценка:  5 (Голосов: 1)
Поблагодарили: 2
Поделиться ссылкой на эту раздачу с друзьями:
В контактеFacebookОдноклассникиTwitterLivejournalМой МирLiveinternet
 

 
Показать сообщения:    


Вы не можете начинать темы
Вы не можете отвечать на сообщения
Вы не можете редактировать свои сообщения
Вы не можете удалять свои сообщения
Вы не можете голосовать в опросах
Вы не можете прикреплять файлы к сообщениям
Вы можете скачивать файлы