Loading...
Error

Скачать Лесной воин / Forest Warrior (Эрон Норрис) [1996, боевик, комедия, приключения, семейный, вестерн, DVDRip-AVC] [MVO] торрент без регистрации

 
Статистика раздачи
Размер:  1,39 GB   |    Скачан:  105 раз
Сидов:  1  [  0 KB/s  ]  
 
Автор Сообщение

Marsianka

[] 

Инфомация о фильме
Название: Лесной воин
Оригинальное название: Forest Warrior
Год выхода: 1996
Жанр: боевик, комедия, приключения, семейный, вестерн
Режиссер: Эрон Норрис
В ролях: Чак Норрис, Терри Кайзер, Макс Гэйл, Роско Ли Браун, Трентон Найт, Миган Пол, Джош Вулфорд, Джордан Брауэр, Майкл Фридмэн, Уильям Сэндерсон, Лоретта Суит, Майкл Бек, Деннис Паладино, Джон Деннис Джонс

О фильме

Живописные леса Тэнглвуда штата Орегон распростираются на многие сотни миль. Долгие годы и многие десятилетия жители этих мест гордились нетронутым цивилизацией обликом природы, любовались вечно зелёными лесами и невероятной красоты горой, виднеющейся на горизонте. Завет охраны и защиты Тэнглвуда передавался из поколения в поколение, позволяя хранить, чтить и уважать леса и их обитателей.
Но однажды появляется жадный коммерсант и коварный древесный магнат, Трэвис Торн, задавшийся целью заработать на вырубке тэнглвудского леса. Вместе с кучкой нечестных юристов, лесорубов и верных жажде наживы прихвостней, он пытается пустить пыль в глаза местных жителей, тем самым временем расчехляя бензопилы и начиная считать сказочную прибыль.
Но не тут то было, в своём хитро продуманном плане Торн не учёл одной маленькой детали за лес будут сражаться. И основную опасность для самонадеянного дельца будет представлять самоотверженный и храбрый, неотступный и верный своему долгу хранитель леса Джон МакКена, а помогут ему в этом пятеро ребятишек, которые сделают всё возможное и невозможное, дабы защитить природу от непрошенных гостей




Страна: США
Студия: LOT Productions , Nu-Image Films
Продолжительность: 01:33:00
Перевод: Профессиональный (многоголосый)


Файл
Формат: MKV
Качество: DVDRip-AVC
Видео: MPEG4 AVC 768 x 576, 25.000 fps, 1750 - 2136 Кбит/сек
Звук: AC-3, 2 ch, 192 Кб/сек
Субтитры: Нет

General
Unique ID : 238477497787520815412962726204293123856 (0xB369186C78DAC529A3B370A7732A0F10)
Complete name : D:DownloadsLesnoi.Voin.1995.x264.DVDRip.(AVC).by.Тorrent-Хzona.torrent.mkv
Format : Matroska
Format version : Version 2
File size : 1.39 GiB
Duration : 1h 33mn
Overall bit rate : 2 136 Kbps
Encoded date : UTC 2013-06-04 15:54:44
Writing application : mkvmerge v6.1.0 ('Old Devil') built on Mar 4 2013 09:10:42
Writing library : libebml v1.3.0 + libmatroska v1.4.0

Video
ID : 1
Format : AVC
Format/Info : Advanced Video Codec
Format profile : High@L4.1
Format settings, CABAC : Yes
Format settings, ReFrames : 4 frames
Codec ID : V_MPEG4/ISO/AVC
Duration : 1h 33mn
Bit rate : 1 750 Kbps
Width : 768 pixels
Height : 576 pixels
Display aspect ratio : 4:3
Frame rate mode : Constant
Frame rate : 25.000 fps
Color space : YUV
Chroma subsampling : 4:2:0
Bit depth : 8 bits
Scan type : Progressive
Bits/(Pixel*Frame) : 0.158
Stream size : 1.11 GiB (80%)
Writing library : x264 core 130 r2273 b3065e6
Encoding settings : cabac=1 / ref=3 / deblock=1:-2:-2 / analyse=0x3:0x111 / me=umh / subme=9 / psy=1 / psy_rd=1.00:0.15 / mixed_ref=1 / me_range=32 / chroma_me=1 / trellis=2 / 8x8dct=1 / cqm=0 / deadzone=21,11 / fast_pskip=0 / chroma_qp_offset=-3 / threads=3 / lookahead_threads=1 / sliced_threads=0 / nr=0 / decimate=1 / interlaced=0 / bluray_compat=0 / constrained_intra=0 / bframes=3 / b_pyramid=2 / b_adapt=0 / b_bias=0 / direct=1 / weightb=1 / open_gop=0 / weightp=2 / keyint=250 / keyint_min=25 / scenecut=40 / intra_refresh=0 / rc_lookahead=50 / rc=2pass / mbtree=1 / bitrate=1750 / ratetol=1.0 / qcomp=0.60 / qpmin=0 / qpmax=69 / qpstep=4 / cplxblur=20.0 / qblur=0.5 / ip_ratio=1.40 / aq=1:1.00
Default : Yes
Forced : No

Audio
ID : 2
Format : AC-3
Format/Info : Audio Coding 3
Mode extension : CM (complete main)
Format settings, Endianness : Big
Codec ID : A_AC3
Duration : 1h 33mn
Bit rate mode : Constant
Bit rate : 384 Kbps
Channel(s) : 6 channels
Channel positions : Front: L C R, Side: L R, LFE
Sampling rate : 48.0 KHz
Bit depth : 16 bits
Compression mode : Lossy
Stream size : 256 MiB (18%)
Default : Yes
Forced : No
Релиз от: &



Скачать Лесной.воин.Forest.Warrior.(Эрон.Норрис).[1996.боевик.комедия.приключения.семейный.вестерн.DVDRip-AVC].[MVO].torrent без регистрации
Золото ЗОЛОТАЯ РАЗДАЧА! СКАЧАННОЕ НЕ ЗАСЧИТЫВАЕТСЯ! Золото
Дата: Зарегистрирован   [ Тип: внутренний ] Как тут cкачать?
MAGNET ссылка
MAGNET ссылка


Скачать .torrent

14 KB

Статус: проверено DHT
Скачан: торрент - 105 раз, раздача полностью - 28 раз
Размер: 1,39 GB
Оценка:  - (Голосов: 0)
Поблагодарили: 3
Поделиться ссылкой на эту раздачу с друзьями:
В контактеFacebookОдноклассникиTwitterLivejournalМой МирLiveinternet
 

 
Показать сообщения:    


Вы не можете начинать темы
Вы не можете отвечать на сообщения
Вы не можете редактировать свои сообщения
Вы не можете удалять свои сообщения
Вы не можете голосовать в опросах
Вы не можете прикреплять файлы к сообщениям
Вы можете скачивать файлы