Loading...
Error

Скачать Скандал / Scandal (сезон 02) (Роксанн Даусон) [2012, драма, WEB-DLRip] [720p] [MVO (Fox Life)] торрент без регистрации

 
Статистика раздачи
Размер:  30,98 GB   |    Скачан:  122 раза
Сидов:  1  [  0 KB/s  ]  
 
Автор Сообщение

МихаНЕзатор

[] 

Название: Скандал
Оригинальное название: Scandal
Год выпуска: 2012
Жанр: Драма
Режиссер: Роксанн Даусон

В ролях: Керри Вашингтон, Генри Йен Кьюсик, Коламбус Шорт, Дэрби Стэнчфилд, Кэти Лоус, Гильермо Диас, Джефф Перри, Тони Голдуин, Джошуа Малина, Беллами Янг, Мэтт Летчер, Лиза Вейл.

Описание: Специалист по связям с общественностью Оливия Поуп, ранее работавшая на президента США, создает свое антикризисное агенство, цель которого устранять проблемы высокопоставленных клиентов до того, как они станут всеобщим достоянием. Но если Вы посвящаете 24 часа в сутки решению проблем других людей, у Вас просто не будет времени, чтобы заняться своей собственной жизнью. Поэтому несмотря на то, что Оливия и ее команда самых блестящих специалистов прекрасно справляются с решением самых деликатных ситуаций своих клиентов, их собственная жизнь полна всякого рода проблем.

Страна: США
Продолжительность: 20 х ~ 00:45:00
Перевод: Профессиональный (многоголосый, закадровый) - Fox Life
Субтитры: Нет



Качество: WEB-DL 720p
Формат: MKV
Видео: AVC, ~ 4000 Кбит/с, 1280x720
Аудио rus: AC3, 2 ch, 192 Кбит/с
Аудио eng: AC3, 6 ch, 384 Кбит/с

02.07.2013 г. торент обновлён, добавлена 21-22 серия, сезон полностью!

01. Белая шляпа снята / White Hats Off
02. Другая / The Other Woman
03. Сезон охоты / Hunting Season
04. Спад напряжения / Beltway Unbuckled
05. Все дороги ведут к Фитцу / All Roads Lead to Fitz
06. Шпионы вроде нас / Spies Like Us
07. Неповиновение / Defiance
08. С днем Рождения, мистер Президент / Happy Birthday, Mr. President
09. Blown Away
10. One for the Dog
11. A Criminal, a Whore, an Idiot and a Liar
12. Truth or Consequences
13. Nobody Likes Babies
14. Whiskey Tango Foxtrot
15. Boom Goes the Dynamite
16. Top of the Hour
17. Snake in the Garden
18. Molly, You In Danger ,Girl
19. Seven Fifty-Two
20. A Woman Scorned
21. Any Questions?
22. White Hat's Back On
Общее
Формат : Matroska
Версия формата : Version 4 / Version 2
Размер файла : 1,39 Гбайт
Продолжительность : 43 м.
Общий поток : 4603 Кбит/сек
Дата кодирования : UTC 2013-03-13 10:52:01
Программа кодирования : mkvmerge v6.0.0 ('Coming Up For Air') built on Jan 20 2013 09:52:00
Библиотека кодирования : libebml v1.3.0 + libmatroska v1.4.0

Видео
Идентификатор : 1
Формат : AVC
Формат/Информация : Advanced Video Codec
Профиль формата : High@L3.1
Параметр CABAC формата : Нет
Параметр ReFrames формата : 2 кадра
Идентификатор кодека : V_MPEG4/ISO/AVC
Продолжительность : 43 м.
Битрейт : 3936 Кбит/сек
Ширина : 1280 пикселей
Высота : 720 пикселей
Соотношение сторон : 16:9
Режим частоты кадров : Постоянный
Частота кадров : 23,976 кадра/сек
Цветовое пространство : YUV
Субдискретизация насыщенности : 4:2:0
Битовая глубина : 8 бит
Тип развёртки : Прогрессивная
Бит/(Пиксели*Кадры) : 0.178
Размер потока : 1,19 Гбайт (85%)
Заголовок : [Scandal] White Hat's Off
Язык : English
Default : Да
Forced : Нет
Основные цвета : BT.709
Характеристики трансфера : BT.709
Коэффициенты матрицы : BT.709

Аудио #1
Идентификатор : 2
Формат : AC-3
Формат/Информация : Audio Coding 3
Расширение режима : CM (complete main)
Параметр Endianness формата : Big
Идентификатор кодека : A_AC3
Продолжительность : 43 м.
Вид битрейта : Постоянный
Битрейт : 192 Кбит/сек
Каналы : 2 канала
Расположение каналов : Front: L R
Частота : 48,0 КГц
Битовая глубина : 16 бит
Метод сжатия : С потерями
Размер потока : 59,4 Мбайт (4%)
Заголовок : Fox Life
Язык : Russian
Default : Да
Forced : Нет

Аудио #2
Идентификатор : 3
Формат : AC-3
Формат/Информация : Audio Coding 3
Расширение режима : CM (complete main)
Параметр Endianness формата : Big
Идентификатор кодека : A_AC3
Продолжительность : 43 м.
Вид битрейта : Постоянный
Битрейт : 384 Кбит/сек
Каналы : 6 каналов
Расположение каналов : Front: L C R, Side: L R, LFE
Частота : 48,0 КГц
Битовая глубина : 16 бит
Метод сжатия : С потерями
Размер потока : 119 Мбайт (8%)
Заголовок : Original 5.1
Язык : English
Default : Нет
Forced : Нет



Скачать Скандал.Scandal.(сезон.02).(Роксанн.Даусон).[2012.драма.WEB-DLRip].[720p].[MVO.(Fox.Life)].torrent без регистрации
Золото ЗОЛОТАЯ РАЗДАЧА! СКАЧАННОЕ НЕ ЗАСЧИТЫВАЕТСЯ! Золото
Дата: Зарегистрирован   [ Тип: внутренний ] Как тут cкачать?
MAGNET ссылка
MAGNET ссылка


Скачать .torrent

79 KB

Статус: проверено DHT
Скачан: торрент - 122 раз, раздача полностью - 30 раз
Размер: 30,98 GB
Оценка:  - (Голосов: 0)
Поблагодарили: 0
Поделиться ссылкой на эту раздачу с друзьями:
В контактеFacebookОдноклассникиTwitterLivejournalМой МирLiveinternet
 

 

МихаНЕзатор

[] 

Раздача обновлена
 
Показать сообщения:    


Вы не можете начинать темы
Вы не можете отвечать на сообщения
Вы не можете редактировать свои сообщения
Вы не можете удалять свои сообщения
Вы не можете голосовать в опросах
Вы не можете прикреплять файлы к сообщениям
Вы можете скачивать файлы