Loading...
Error

Скачать Честная игра / Fair Game (Эндрю Сайпс) [1995, боевик, триллер, WEB-DLRip] [Dub] торрент без регистрации

 
Статистика раздачи
Размер:  1,46 GB   |    Скачан:  109 раз
Сидов:  1  [  0 KB/s  ]  
 
Автор Сообщение

Marsianka

[] 

Информация о фильме
Название: Честная игра
Оригинальное название: Fair Game
Год выхода: 1995
Жанр: боевик, триллер
Режиссер: Эндрю Сайпс / Andrew Sipes
В ролях: Уильям Болдуин, Синди Кроуфорд, Стивен Беркофф, Кристофер МакДональд, Мигель Сандоваль, Йохан Карло, Сальма Хайек, Джон Бедфорд Ллойд, Олек Крупа, Дженетт Голдстин

О фильме:
Кэтрин Маккуин, красивая женщина-адвокат, сама того не подозревая, случайно вмешалась в крупную игру работников из бывшего КГБ. Ее хотят убрать как мелкую, но досадную помеху. Однако случай сводит ее с детективом Максом Киркпатриком, который тоже оказывается втянутым в «игру» и теряет трех своих друзей полицейских.
Вместе они пытаются скрыться, но их местонахождение постоянно оказывается известным преследователям. Начинается настоящая охота, в которой еще пока не ясно кто охотник, а кто жертва.



Страна: США
Продолжительность: 01:30:27
Перевод: Профессиональный (дублированный) Мост-Видео

Файл
Кодек: XviD
Качество: WEB-DLRip
Видео: 704x400, 23,976 fps, XviD build 73 ~2113 kbps
Аудио: 48 kHz, AC3 Dolby Digital, 2/0 (L,R) ch, ~192 kbps
Общее
Полное имя : Fair.Game.1995.WEB-DLRip.avi
Формат : AVI
Формат/Информация : Audio Video Interleave
Размер файла : 1,46 Гбайт
Продолжительность : 1 ч. 30 м.
Общий поток : 2314 Кбит/сек
Программа кодирования : VirtualDubMod 1.5.10.3 | www.virtualdub-fr.org || (build 2550/release)
Библиотека кодирования : VirtualDubMod build 2550/release

Видео
Идентификатор : 0
Формат : MPEG-4 Visual
Профиль формата : Advanced Simple@L5
Параметр BVOP формата : 1
Параметр QPel формата : Нет
Параметр GMC формата : Без точки перехода
Параметр матрицы формата : Выборочная
Идентификатор кодека : XVID
Идентификатор кодека/Подсказка : XviD
Продолжительность : 1 ч. 30 м.
Битрейт : 2113 Кбит/сек
Ширина : 704 пикс.
Высота : 400 пикс.
Соотношение сторон : 16:9
Частота кадров : 23,976 кадр/сек
Цветовое пространство : YUV
Подвыборка цветности : 4:2:0
Битовая глубина : 8 бит
Тип развёртки : Прогрессивная
Метод сжатия : С потерями
Бит/(Пиксели*Кадры) : 0.313
Размер потока : 1,33 Гбайт (91%)
Библиотека кодирования : XviD 73

Аудио
Идентификатор : 1
Формат : AC-3
Формат/Информация : Audio Coding 3
Расширение режима : CM (complete main)
Идентификатор кодека : 2000
Продолжительность : 1 ч. 30 м.
Вид битрейта : Постоянный
Битрейт : 192 Кбит/сек
Канал(ы) : 2 канала(ов)
Расположение каналов : Front: L R
Частота : 48,0 КГц
Битовая глубина : 16 бит
Метод сжатия : С потерями
Размер потока : 124 Мбайт (8%)
Выравнивание : Разделение по промежуткам
Продолжительность промежутка : 42 мс. (1,00 видеокадр)
Время предзагрузки промежутка : 500 ms
Релиз от: Leon-masl



Скачать Честная.игра.Fair.Game.(Эндрю.Сайпс).[1995.боевик.триллер.WEB-DLRip].[Dub].torrent без регистрации
Золото ЗОЛОТАЯ РАЗДАЧА! СКАЧАННОЕ НЕ ЗАСЧИТЫВАЕТСЯ! Золото
Дата: Зарегистрирован   [ Тип: внутренний ] Как тут cкачать?
MAGNET ссылка
MAGNET ссылка


Скачать .torrent

15 KB

Статус: проверено DHT
Скачан: торрент - 109 раз, раздача полностью - 4 раз
Размер: 1,46 GB
Оценка:  5 (Голосов: 1)
Поблагодарили: 2
Поделиться ссылкой на эту раздачу с друзьями:
В контактеFacebookОдноклассникиTwitterLivejournalМой МирLiveinternet
 

 
Показать сообщения:    


Вы не можете начинать темы
Вы не можете отвечать на сообщения
Вы не можете редактировать свои сообщения
Вы не можете удалять свои сообщения
Вы не можете голосовать в опросах
Вы не можете прикреплять файлы к сообщениям
Вы можете скачивать файлы