Loading...
Error

Скачать Западня / The Cottage (Пол Эндрю Уильямс / Paul Andrew Williams) [2008, ужасы, триллер, комедия, криминал, DVDRip] [VO] (Максим Логинофф) торрент без регистрации

 
Статистика раздачи
Размер:  1,45 GB   |    Скачан:  113 раз
Сидов:  1  [  0 KB/s  ]  
 
Автор Сообщение

leon030982

[] 

Западня / The Cottage


Год выпуска: 2008
Страна: Великобритания
Жанр: ужасы, триллер, комедия, криминал
Продолжительность: 01:31:33
Перевод: Одноголосный (закадровый) [Максим Логинофф]
Cубтитры: нет

Режиссер: Пол Эндрю Уильямс / Paul Andrew Williams

В ролях: Энди Серкис, Рис Шерсмит, Дженнифер Эллисон, Стив О’Доннелл, Джеймс Биерман, Кэт Мичер, Дэнни Нуссбаум, Логан Вонг, Джонатан Чан-Пинсли, Саймон Шатцбергер...

Описание: Два незадачливых брата похитили дочь известного мафиози. В ожидании выкупа они привезли её в старый коттедж, расположенный в глухом районе Англии. Все бы хорошо, но мафия пронюхала, где их искать, заложница оказалось не подарок, а местный фермер оказался не вполне нормальным.


Сэмпл: http://multi-up.com/866641

Качество видео: DVDRip
Формат видео: AVI
Видео: 720x304 (2.37:1), 23.976 fps, XviD build 65 ~1860 kbps avg, 0.35 bit/pixel
Аудио: 48 kHz, AC3 Dolby Digital, 3/2 (L,C,R,l,r) + LFE ch, ~448 kbps
General
Complete name : D:\torrent\The Cottage.avi
Format : AVI
Format/Info : Audio Video Interleave
File size : 1.45 GiB
Duration : 1h 31mn
Overall bit rate : 2 268 Kbps
Writing application : VirtualDubMod 1.5.10.3 (build 2550/release)
Writing library : VirtualDubMod build 2550/release
Video
ID : 0
Format : MPEG-4 Visual
Format profile : Advanced Simple@L5
Format settings, BVOP : 2
Format settings, QPel : No
Format settings, GMC : No warppoints
Format settings, Matrix : Default (MPEG)
Codec ID : XVID
Codec ID/Hint : XviD
Duration : 1h 31mn
Bit rate : 1 810 Kbps
Width : 720 pixels
Height : 304 pixels
Display aspect ratio : 2.35:1
Frame rate : 23.976 fps
Color space : YUV
Chroma subsampling : 4:2:0
Bit depth : 8 bits
Scan type : Progressive
Compression mode : Lossy
Bits/(Pixel*Frame) : 0.345
Stream size : 1.16 GiB (80%)
Writing library : XviD 65
Audio
ID : 1
Format : AC-3
Format/Info : Audio Coding 3
Mode extension : CM (complete main)
Format settings, Endianness : Big
Codec ID : 2000
Duration : 1h 31mn
Bit rate mode : Constant
Bit rate : 448 Kbps
Channel(s) : 6 channels
Channel positions : Front: L C R, Side: L R, LFE
Sampling rate : 48.0 KHz
Bit depth : 16 bits
Compression mode : Lossy
Delay relative to video : 16ms
Stream size : 293 MiB (20%)
Alignment : Split accross interleaves
Interleave, duration : 42 ms (1.00 video frame)
Interleave, preload duration : 500 ms



Скачать Западня.The.Cottage.(Пол.Эндрю.Уильямс.Paul.Andrew.Williams).[2008.ужасы.триллер.комедия.криминал.DVDRip].[VO].(Максим.Логинофф).torrent без регистрации
Золото ЗОЛОТАЯ РАЗДАЧА! СКАЧАННОЕ НЕ ЗАСЧИТЫВАЕТСЯ! Золото
Дата: Зарегистрирован   [ Тип: внутренний ] Как тут cкачать?
MAGNET ссылка
MAGNET ссылка


Скачать .torrent

15 KB

Статус: проверено DHT
Скачан: торрент - 113 раз, раздача полностью - 29 раз
Размер: 1,45 GB
Оценка:  5 (Голосов: 1)
Поблагодарили: 4
Поделиться ссылкой на эту раздачу с друзьями:
В контактеFacebookОдноклассникиTwitterLivejournalМой МирLiveinternet
 

 
Показать сообщения:    


Вы не можете начинать темы
Вы не можете отвечать на сообщения
Вы не можете редактировать свои сообщения
Вы не можете удалять свои сообщения
Вы не можете голосовать в опросах
Вы не можете прикреплять файлы к сообщениям
Вы можете скачивать файлы