Loading...
Error

Скачать Ловец солнца / The Sunchaser (Майкл Чимино / Michael Cimino) [1996, Драма, криминал, WEB-DLRip] [DVO] (ОРТ) + [AVO] (В. Горчаков) торрент без регистрации

 
Статистика раздачи
Размер:  1,63 GB   |    Скачан:  106 раз
Сидов:  1  [  0 KB/s  ]  
 
Автор Сообщение

leon030982

[] 

Ловец солнца / The Sunchaser
«It began as a kidnapping. It became a journey of hope»

Страна: США
Жанр: Драма, криминал
Год выпуска: 1996
Продолжительность: 02:02:30
Перевод 1: Профессиональный (двухголосый закадровый) [ОРТ]
Перевод 2: Авторский (одноголосый закадровый) [Василий Горчаков] [отдельно]
Cубтитры: нет
Режиссер: Майкл Чимино / Michael Cimino
В ролях: Вуди Харрельсон, Джон Седа, Александра Тайдингс, Мэтт Малхерн, Талиса Сото, Ричард Бауэр, Виктор Эрон, Лоуренс Прессмэн, Майкл О'Нилл, Хэрри Кэри-младший, Энн Бэнкрофт
Описание: Смертельно больной преступник захватывает в заложники преуспевающего лос-анжелесского врача. Начинается головокружительная погоня по Западу Соединенных Штатов. Кто останется в живых и так ли уж глубока пропасть между злодеем и жертвой?
Sample | IMDB | КиноПоиск
Тип релиза: WEB-DLRip
Формат видео: AVI
Видео: 720x304 (2.37:1), 23.976 fps, XviD build 50, 1510 kbps avg, 0.29 bit/pixel
Аудио 1: 48 kHz, AC3 Dolby Digital, 2/0 (L,R) ch, 192 kbps [Russian_DVO]
Аудио 2: 48 kHz, AC3 Dolby Digital, 2/0 (L,R) ch, 192 kbps [Russian_AVO] [отдельно]
General
Complete name : E:\Мои раздачи\The Sunchaser_WEBDLRip_RG_All_Fims\The Sunchaser_WEBDLRip_RG_All_Fims.avi
Format : AVI
Format/Info : Audio Video Interleave
File size : 1.47 GiB
Duration : 2h 2mn
Overall bit rate : 1 712 Kbps
Writing application : VirtualDubMod 1.5.10.3
Writing library : VirtualDubMod build 2550/release
Video
ID : 0
Format : MPEG-4 Visual
Format profile : Advanced Simple@L5
Format settings, BVOP : Yes
Format settings, QPel : No
Format settings, GMC : No warppoints
Format settings, Matrix : Custom
Codec ID : XVID
Codec ID/Hint : XviD
Duration : 2h 2mn
Bit rate : 1 511 Kbps
Width : 720 pixels
Height : 304 pixels
Display aspect ratio : 2.35:1
Frame rate : 23.976 fps
Color space : YUV
Chroma subsampling : 4:2:0
Bit depth : 8 bits
Scan type : Progressive
Compression mode : Lossy
Bits/(Pixel*Frame) : 0.288
Stream size : 1.29 GiB (88%)
Writing library : XviD 1.2.1 (UTC 2008-12-04)
Audio
ID : 1
Format : AC-3
Format/Info : Audio Coding 3
Mode extension : CM (complete main)
Codec ID : 2000
Duration : 2h 2mn
Bit rate mode : Constant
Bit rate : 192 Kbps
Channel(s) : 2 channels
Channel positions : Front: L R
Sampling rate : 48.0 KHz
Bit depth : 16 bits
Compression mode : Lossy
Stream size : 168 MiB (11%)
Alignment : Split accross interleaves
Interleave, duration : 42 ms (1.00 video frame)
Interleave, preload duration : 500 ms
Audio 2 (отдельно)
Format : AC-3
Format/Info : Audio Coding 3
Mode extension : CM (complete main)
Duration : 2h 2mn
Bit rate mode : Constant
Bit rate : 192 Kbps
Channel(s) : 2 channels
Channel positions : Front: L R
Sampling rate : 48.0 KHz
Bit depth : 16 bits
Compression mode : Lossy
Stream size : 168 MiB (100%)



Скачать Ловец.солнца.The.Sunchaser.(Майкл.Чимино.Michael.Cimino).[1996.Драма.криминал.WEB-DLRip].[DVO].(ОРТ).+.[AVO].(В.Горчаков).torrent без регистрации
Золото ЗОЛОТАЯ РАЗДАЧА! СКАЧАННОЕ НЕ ЗАСЧИТЫВАЕТСЯ! Золото
Дата: Зарегистрирован   [ Тип: внутренний ] Как тут cкачать?
MAGNET ссылка
MAGNET ссылка


Скачать .torrent

17 KB

Статус: проверено DHT
Скачан: торрент - 106 раз, раздача полностью - 1 раз
Размер: 1,63 GB
Оценка:  5 (Голосов: 1)
Поблагодарили: 1
Поделиться ссылкой на эту раздачу с друзьями:
В контактеFacebookОдноклассникиTwitterLivejournalМой МирLiveinternet
 

 
Показать сообщения:    


Вы не можете начинать темы
Вы не можете отвечать на сообщения
Вы не можете редактировать свои сообщения
Вы не можете удалять свои сообщения
Вы не можете голосовать в опросах
Вы не можете прикреплять файлы к сообщениям
Вы можете скачивать файлы