Loading...
Error

Скачать Нулевой эффект / Принцип детектива Зеро / Zero Effect (Джейк Кэздан / Jake Kasdan) [1998, Триллер, драма, комедия, криминал, детектив, WEB-DLRip] [DVO] (Ульпаней Эльром) торрент без регистрации

 
Статистика раздачи
Размер:  1,46 GB   |    Скачан:  127 раз
Сидов:  1  [  0 KB/s  ]  
 
Автор Сообщение

leon030982

[] 

Нулевой эффект / Принцип детектива Зеро / Zero Effect



Год выпуска: 1998
Выпущено: США / Columbia Pictures Corporation, Castle Rock Entertainment
Жанр: триллер, драма, комедия, криминал, детектив
Продолжительность: 01:56:05
Перевод: Профессиональный (двухголосый закадровый) [Ульпаней Эльром]
Cубтитры: нет

Режиссер: Джейк Кэздан / Jake Kasdan

В ролях:
Билл Пуллман (Daryl Zero), Бен Стиллер (Steve Arlo), Райан О’Нил (Gregory Stark), Ким Диккенс (Gloria Sullivan), Анджела Фезерстоун (Jess), Хью Росс (Bill), Сара ДеВисентис (Daisy), Мэтт О’Тул (Kragan Vincent), Мишель Мариана (Maid), Роберт Катимс (Gerald Auerbach), Тайрон Генри (Staffer #1)

Описание:
Частный сыщик Дэрил Зеро — необычный сыщик — его мало интересуют слава и гонорары. Он честен скромен и одинок. Однако именно он является одним из самих сильных американских сыщиков наших дней.

IMDb

Качество: WEB-DLRip [Zero.Effect.1998.720p.WEB-DL.H264-ViGi]
Формат: AVI
Видео кодек: XviD
Аудио кодек: AC3
Видео: 720x400 (1.80:1), 23.976 fps, XviD build 73 ~1598 kbps avg, 0.23 bit/pixel
Аудио: 48 kHz, AC3 Dolby Digital, 2/0 (L,R) ch, ~192.00 kbps avg
E:\INTERNET\Nulevoi_effekt_1998_WEB_DLRip_by_Dalemake.avi
General
Complete name : E:\INTERNET\Nulevoi_effekt_1998_WEB_DLRip_by_Dalemake.avi
Format : AVI
Format/Info : Audio Video Interleave
File size : 1.46 GiB
Duration : 1h 56mn
Overall bit rate : 1 796 Kbps
Writing application : VirtualDubMod 1.5.10.3 | www.virtualdub-fr.org || (build 2550/release)
Writing library : VirtualDubMod build 2550/release
Video #0
ID : 0
Format : MPEG-4 Visual
Format profile : Advanced Simple@L5
Format settings, BVOP : 1
Format settings, QPel : No
Format settings, GMC : No warppoints
Format settings, Matrix : Custom
Codec ID : XVID
Codec ID/Hint : XviD
Duration : 1h 56mn
Bit rate : 1 599 Kbps
Width : 720 pixels
Height : 400 pixels
Display aspect ratio : 16:9
Frame rate : 23.976 fps
Color space : YUV
Chroma subsampling : 4:2:0
Bit depth : 8 bits
Scan type : Progressive
Compression mode : Lossy
Bits/(Pixel*Frame) : 0.232
Stream size : 1.30 GiB (89%)
Writing library : XviD 73
Audio #1
ID : 1
Format : AC-3
Format/Info : Audio Coding 3
Mode extension : CM (complete main)
Format settings, Endianness : Big
Codec ID : 2000
Duration : 1h 53mn
Bit rate mode : Constant
Bit rate : 192 Kbps
Channel(s) : 2 channels
Channel positions : Front: L R
Sampling rate : 48.0 KHz
Bit depth : 16 bits
Compression mode : Lossy
Stream size : 156 MiB (10%)
Alignment : Split accross interleaves
Interleave, duration : 43 ms (1.02 video frame)
Interleave, preload duration : 500 ms



Скачать Нулевой.эффект.Принцип.детектива.Зеро.Zero.Effect.(Джейк.Кэздан.Jake.Kasdan).[1998.Триллер.драма.комедия.криминал.детектив.WEB-DLRip].[DVO].(Ульпаней.Эльром).torrent без регистрации
Золото ЗОЛОТАЯ РАЗДАЧА! СКАЧАННОЕ НЕ ЗАСЧИТЫВАЕТСЯ! Золото
Дата: Зарегистрирован   [ Тип: внутренний ] Как тут cкачать?
MAGNET ссылка
MAGNET ссылка


Скачать .torrent

15 KB

Статус: проверено DHT
Скачан: торрент - 127 раз, раздача полностью - 42 раз
Размер: 1,46 GB
Оценка:  5 (Голосов: 1)
Поблагодарили: 3
Поделиться ссылкой на эту раздачу с друзьями:
В контактеFacebookОдноклассникиTwitterLivejournalМой МирLiveinternet
 

 
Показать сообщения:    


Вы не можете начинать темы
Вы не можете отвечать на сообщения
Вы не можете редактировать свои сообщения
Вы не можете удалять свои сообщения
Вы не можете голосовать в опросах
Вы не можете прикреплять файлы к сообщениям
Вы можете скачивать файлы