Loading...
Error

Скачать Воздушные приключения / Those Magnificent Men in Their Flying Machines or How I Flew from London to Paris in (Кен Эннакин) [1965, комедия, приключения, HRip] [Dub] торрент без регистрации

 
Статистика раздачи
Размер:  745 MB   |    Скачан:  124 раза
Сидов:  1  [  0 KB/s  ]  
 
Автор Сообщение

Marsianka

[] 

Страна: Великобритания
Жанр: комедия, приключения
Год выпуска: 1965
Продолжительность: 02:18:02

Перевод: Профессиональный (дублированный) Советский дубляж
Cубтитры: нет
Оригинальная аудиодорожка: нет

Режиссер: Кен Эннакин / Ken Annakin

В ролях: Стюарт Уитман, Сара Майлз, Джеймс Фокс, Альберто Сорди, Роберт Морли, Герт Фрёбе, Жан-Пьер Кассель, Ирина Демик, Эрик Сайкс, Ред Скелтон и др.

Роли дублировали: Феликс Яворский, Надежда Румянцева, Вячеслав Тихонов, Артем Карапетян, Сергей Цейц, Евгений Весник, Александр Белявский, Николай Граббе, Зиновий Гердт и др.

Описание: 1910. Газетный магнат лорд Ронслей, желая доказать, что Великобритания N 1 не только на море, но и в воздухе, назначает приз в 10 тысяч фунтов тому, кто выиграет авиагонку через Ла-Манш, организованную газетой «Daily Post». В борьбу за приз вступают американский ковбой Орвил Ньютон вместе с дочерью лорда Патрисией, бравый лейтенант британских военно-воздушных сил и жених Патрисии Ричард Мейс, злодей-англичанин сэр Персивал Уэр-Эрмитаж, вечно влюбленный француз Пьер Дюбуа, фанатичный немецкий полковник фон Гольштейн, итальянский граф Эмилио Понтичелли и японский военный пилот Ямамото...

Исходник: BDRip 1080p
Тип релиза: HDRip
Контейнер: AVI

Видео: 640x288 (2,222:1), 23,976 fps, XviD ~ 650 kbps avg, 0.147 bit/pixel
Аудио 1: 48 kHz, MP3, 2 ch, 128.00 kbps русский

Раздача от:

Общее
Полное имя : Vozdushnye.prikljuchenija.1965.HDRip-745_[Youtracker]_by_AVP Studio.avi
Формат : AVI
Формат/Информация : Audio Video Interleave
Размер файла : 745 Мбайт
Продолжительность : 2 ч. 12 м.
Общий поток : 788 Кбит/сек
Программа кодирования : VirtualDubMod 1.5.10.3 | www.virtualdub-fr.org || (build 2550/release)
Библиотека кодирования : VirtualDubMod build 2550/release

Видео
Идентификатор : 0
Формат : MPEG-4 Visual
Профиль формата : Advanced Simple@L5
Параметр BVOP формата : 1
Параметр QPel формата : Нет
Параметр GMC формата : Без точки перехода
Параметр матрицы формата : Выборочная
Идентификатор кодека : XVID
Идентификатор кодека/Подсказка : XviD
Продолжительность : 2 ч. 12 м.
Битрейт : 650 Кбит/сек
Ширина : 640 пикселей
Высота : 288 пикселей
Соотношение сторон : 2,222
Частота кадров : 23,976 кадра/сек
Цветовое пространство : YUV
Субдискретизация насыщенности : 4:2:0
Битовая глубина : 8 бит
Тип развёртки : Прогрессивная
Метод сжатия : С потерями
Бит/(Пиксели*Кадры) : 0.147
Размер потока : 615 Мбайт (83%)
Библиотека кодирования : XviD 65

Аудио
Идентификатор : 1
Формат : MPEG Audio
Версия формата : Version 1
Профиль формата : Layer 3
Идентификатор кодека : 55
Идентификатор кодека/Подсказка : MP3
Продолжительность : 2 ч. 12 м.
Вид битрейта : Постоянный
Битрейт : 128 Кбит/сек
Каналы : 2 канала
Частота : 48,0 КГц
Метод сжатия : С потерями
Размер потока : 121 Мбайт (16%)
Выравнивание : Соединение по промежуткам
Продолжительность промежутка : 42 мс. (1,00 видеокадр)
Время предзагрузки промежутка : 504 мс.
Библиотека кодирования : L3.99r
Настройки программы : -m s -V 4 -q 2 -lowpass 17 -b 128



Скачать Воздушные.приключения.Those.Magnificent.Men.in.Their.Flying.Machines.or.How.I.Flew.from.London.to.Paris.in.(Кен.Эннакин).[1965.комедия.приключения.HRip].[Dub].torrent без регистрации
Золото ЗОЛОТАЯ РАЗДАЧА! СКАЧАННОЕ НЕ ЗАСЧИТЫВАЕТСЯ! Золото
Дата: Зарегистрирован   [ Тип: внутренний ] Как тут cкачать?
MAGNET ссылка
MAGNET ссылка


Скачать .torrent

15 KB

Статус: проверено DHT
Скачан: торрент - 124 раз, раздача полностью - 16 раз
Размер: 745 MB
Оценка:  5 (Голосов: 2)
Поблагодарили: 3
Поделиться ссылкой на эту раздачу с друзьями:
В контактеFacebookОдноклассникиTwitterLivejournalМой МирLiveinternet
 

 
Показать сообщения:    


Вы не можете начинать темы
Вы не можете отвечать на сообщения
Вы не можете редактировать свои сообщения
Вы не можете удалять свои сообщения
Вы не можете голосовать в опросах
Вы не можете прикреплять файлы к сообщениям
Вы можете скачивать файлы