Loading...
Error

Скачать Вызов / Defiance (Майкл Нанкин) (сезон 1, серии 1-12 из 12) (Майкл Нанкин) [2013, Фантастика, боевик, драма , WEB-DLRip-AVC 1080p] [DD5.1] [LostFilm] торрент без регистрации

 
Статистика раздачи
Размер:  21,32 GB   |    Скачан:  173 раза
Сидов:  1  [  0 KB/s  ]  
 
Автор Сообщение

Nikolai.Baranov

[] 





Непокорная Земля / Вызов / Defiance




Год выпуска: 2013
Выпущено:США , Universal Cable Productions
Жанр: Фантастика, боевик, драма
Продолжительность:1Серия:01:26 Далее 00:44:00
Сезон: 1
Серии: 1-12
Количество серий в сезоне: 12
Озвучка:Профессиональный многоголосый закадровый(LostFilm)
Субтитры: Нет

Сайт сериала:




Режиссер: Майкл Нанкин

В ролях: Дьюшэйн Уильямс, Джули Бенц, Грант Боулер, Тони Карран, Тренна Китинг, Стефани Леонидас, Джейми Мюррэй, Николь Муньос, Джессика Николс, Джастин Рэйн, Бриттани Аллен


Сюжет сериала "Вызов" рассказывает о Земле, какой она стала после Бледных войн: противостояния землян и прилетевших "на поселение" инопланетян, чья система бинарных солнц превратилась в сверхновую. После того, как потери с обеих сторон достигли ужасных размеров и на Землю по ошибке попали терраформирующие машины инопланетян, горстка солдат осознала бессмысленность взаимного истребления и бросает вызов своим командирам. Цепная реакция привела к перемирию между землянами и вотанцами. В начале сериала со времен объявления перемирия прошло 15 лет. Бывший солдат Джозеф Нолан со своей приемной дочкой-инопланетянкой Айриссой попадает в некогда родной Сент-Луис, и вынужденно становится защитником местных жителей на посту шерифа. Ему предстоит жить в городе, ныне носящем гордое название Вызов, населенном представителями 6 рас, и бороться с силами, пытающимися стереть его с лица Земли.

Качество : WEB-DLRip-AVC 1080p
Формат: MPEG-4
Видео кодек: H264
Видео: 5206Кбит/сек,1920х1080(16.9),в 25.000кадр/сек,AVC(Baseline@L4.0)(1Ref Frames)
Аудио кодек: AAC
Аудио Russian Dolby Digital 5.1:265Кбит/сек,44.1КГц,6каналов,AAC,(Version4)(LC)


Звуковая дорожка сделана путем наложения чистого голоса озвучивателей на центральный канал оригинальной дорожки. Качество идентично звуковой дорожке.



01 Пилот (Pilot)
02 Вниз под землю вслед за мертвецами (Down in the Ground Where the Dead Men Go)
03 Дьявол во тьме (The Devil in the Dark)
04 Достопочтенный гражданин (A Well Respected Man)
05 Яйцо змеи (The Serpent's Egg)
06 Братья по оружию (Brothers in Arms)
07 Прощай, голубое небо (Goodbye Blue Sky)
08 Я родился не в то время (I Just Wasn't Made for These Times)
09 Если я покину этот мир живым (If I Ever Leave This World Alive)
10 Невеста была в черном (The Bride Wore Black)
11 Всё, что случилось с нами, лишь пролог (Past Is Prologue)
12 Всё разрушено (Everything Is Broken)



General
Полное имя : D:\С Е Р И А Л Ы\Непокорная Земля\Defiance_2013_S01_RUS[LostFilm_TV]_DD5.1_x264_Nikolai.Baranov_WEB-DLRip-AVC_(1080p)\Defiance_2013_S01E01_RUS[LostFilm_TV]_DD5.1_x264_Nikolai.Baranov_WEB-DLRip-AVC_(1080p).mp4
Формат : MPEG-4
Профиль формата : Base Media
Идентификатор кодека : isom
Размер файла : 3.30 GiB
Продолжительность : 1h 26mn
Режим общего битрейта : Variable
Общий поток : 5 474 Kbps
Название фильма : BaibaKo.tv presents - Библия 1x09
Дата кодирования : UTC 2013-06-09 21:27:18
Дата пометки : UTC 2013-06-09 21:27:18
Программа кодирования : Lavf51.12.1

Video
Идентификатор : 1
Формат : AVC
Формат/Информация : Advanced Video Codec
Профиль формата : Baseline@L4.0
Параметр CABAC формата : No
Параметр ReFrames формата : 1 frame
Параметр GOP формата : M=1, N=12
Идентификатор кодека : avc1
Идентификатор кодека/Информация : Advanced Video Coding
Продолжительность : 1h 26mn
Вид битрейта : Variable
Битрейт : 5 206 Kbps
Максимальный битрейт : 7 500 Kbps
Ширина : 1 920 pixels
Высота : 1 080 pixels
Соотношение сторон : 16:9
Режим частоты кадров : Constant
Частота кадров : 25.000 fps
Частота кадров в оригинале : 24.000 fps
Цветовое пространство : YUV
Субдискретизация насыщенности : 4:2:0
Битовая глубина : 8 bits
Тип развёртки : Progressive
Бит/(Пиксели*Кадры) : 0.100
Размер потока : 3.13 GiB (95%)
Дата кодирования : UTC 2013-06-09 21:27:18
Дата пометки : UTC 2013-06-09 21:27:18

Audio
Идентификатор : 2
Формат : AAC
Формат/Информация : Advanced Audio Codec
Профиль формата : LC
Идентификатор кодека : 40
Продолжительность : 1h 26mn
Вид битрейта : Variable
Битрейт : 265 Kbps
Каналы : 6 channels
Расположение каналов : Front: L C R, Side: L R, LFE
Частота : 44.1 KHz
Метод сжатия : Lossy
Размер потока : 163 MiB (5%)
Дата кодирования : UTC 2013-06-09 21:27:18
Дата пометки : UTC 2013-06-09 21:27:18










1. Открыть торрент
2. Снять галки с тех файлов торрента, которые мы не хотим закачивать. Оставляем только на нужных нам файлах (файле).
3. Нажать О.К.

В клиенте utorrent

Инструкция

1) Открыть торрент


2) Снять галки с тех файлов торрента, которые мы не хотим закачивать:

* либо вручную, снимая с каждого файла галку( скрин №1)
* либо, нажав кнопку "Снять метки (Select None)", сняв сразу со всех файлов(скрин №2)
№1

№2

Оставляем только на нужных нам файлах (файле).

3)Нажать О.К


Внимание!!! 10.08. 2013. РАЗДАЧА ОБНОВЛЕНА.ФИНАЛ СЕЗОНА.ОБНОВИТЕ ТОРЕНТ ФАЙЛ.ПРИЯТНОГО ПРОСМОТРА.

Релиз от: Nikolai.Baranov










Скачать Вызов.Defiance.(Майкл.Нанкин).(сезон.1.серии.1-12.из.12).(Майкл.Нанкин).[2013.Фантастика.боевик.драма.WEB-DLRip-AVC.1080p].[DD5.1].[LostFilm].torrent без регистрации
Золото ЗОЛОТАЯ РАЗДАЧА! СКАЧАННОЕ НЕ ЗАСЧИТЫВАЕТСЯ! Золото
Дата: Зарегистрирован   [ Тип: внутренний ] Как тут cкачать?
MAGNET ссылка
MAGNET ссылка


Скачать .torrent

55 KB

Статус: проверено DHT
Скачан: торрент - 173 раз, раздача полностью - 29 раз
Размер: 21,32 GB
Оценка:  5 (Голосов: 2)
Поблагодарили: 5
Поделиться ссылкой на эту раздачу с друзьями:
В контактеFacebookОдноклассникиTwitterLivejournalМой МирLiveinternet
 

 

Entropia2

[] 

Будет ли обновление?
 
Показать сообщения:    


Вы не можете начинать темы
Вы не можете отвечать на сообщения
Вы не можете редактировать свои сообщения
Вы не можете удалять свои сообщения
Вы не можете голосовать в опросах
Вы не можете прикреплять файлы к сообщениям
Вы можете скачивать файлы