Loading...
Error

Скачать Чайна О'Брайен / China O'Brien (Роберт Клауз) [1990, боевик, DVDRip-AVC] [VO] торрент без регистрации

 
Статистика раздачи
Размер:  1,18 GB   |    Скачан:  124 раза
Сидов:  1  [  0 KB/s  ]  
 
Автор Сообщение

Marsianka

[] 



Инфомация о фильме
Название: Чайна О'Брайен
Оригинальное название: China O'Brien
Год выхода: 1990
Жанр: боевик
Режиссер: Роберт Клауз
В ролях:Синтия Ротрок, Ричард Нортон, Кит Кук, Даг Райт, Найджел, Артуро Ривера, Скотт МакМиллан, Патрик Адамсон, Дэвид Блэкуэлл, Чад Уолкер, Стэнтон Дэвис, Роберт Тиллер, Лэйни Уоттс, Рип Блэк

О фильме
Чайна О`Брайен, женщина-полицейский возвращается в городок, где она выросла к своему отцу. Мирный городок, который она знала, теперь отбивается от преступных банд. Когда ее отца-шерифа убивают, Чайна решает занять его место и очистить город. В результате вспыхнула серия противостояний, которая решит, кто будет управлять городом.



Страна: США
Студия: Golden Harvest Company Ltd.
Продолжительность: 01:26:53
Перевод: Любительский одноголосый (Петербуржец)
Субтитры: Нет

Файл
Кодек: x264
Качество: DVDRip-AVC
Видео: MPEG4,1024 x 576, 25,000 fps, ~1750 Кб/сек
Звук: AC-3, 2 ch, 192 Кб/сек





Формат : Matroska
Версия формата : Version 2
Размер файла : 1,18 Гбайт
Продолжительность : 1 ч. 26 м.
Общий поток : 1944 Кбит/сек
Дата кодирования : UTC 2013-06-16 23:07:31
Программа кодирования : mkvmerge v5.8.0 ('No Sleep / Pillow') built on Sep 2 2012 15:37:04
Библиотека кодирования : libebml v1.2.3 + libmatroska v1.3.0

Видео
Идентификатор : 1
Формат : AVC
Формат/Информация : Advanced Video Codec
Профиль формата : High@L4.1
Параметр CABAC формата : Да
Параметр ReFrames формата : 4 кадра
Идентификатор кодека : V_MPEG4/ISO/AVC
Продолжительность : 1 ч. 26 м.
Битрейт : 1750 Кбит/сек
Ширина : 1024 пикселя
Высота : 576 пикселей
Соотношение сторон : 16:9
Режим частоты кадров : Постоянный
Частота кадров : 25,000 кадров/сек
Цветовое пространство : YUV
Субдискретизация насыщенности : 4:2:0
Битовая глубина : 8 бит
Тип развёртки : Прогрессивная
Бит/(Пиксели*Кадры) : 0.119
Размер потока : 1,04 Гбайт (88%)
Библиотека кодирования : x264 core 125 r2208 d9d2288
Настройки программы : cabac=1 / ref=3 / deblock=1:-2:-2 / analyse=0x3:0x131 / me=umh / subme=9 / psy=1 / psy_rd=1.00:0.15 / mixed_ref=1 / me_range=32 / chroma_me=1 / trellis=2 / 8x8dct=1 / cqm=0 / deadzone=21,11 / fast_pskip=0 / chroma_qp_offset=-3 / threads=12 / lookahead_threads=2 / sliced_threads=0 / nr=0 / decimate=1 / interlaced=0 / bluray_compat=0 / constrained_intra=0 / bframes=5 / b_pyramid=2 / b_adapt=0 / b_bias=0 / direct=1 / weightb=1 / open_gop=0 / weightp=2 / keyint=250 / keyint_min=25 / scenecut=40 / intra_refresh=0 / rc_lookahead=50 / rc=2pass / mbtree=1 / bitrate=1750 / ratetol=1.0 / qcomp=0.60 / qpmin=0 / qpmax=69 / qpstep=4 / cplxblur=20.0 / qblur=0.5 / ip_ratio=1.40 / aq=1:1.00
Default : Да
Forced : Нет

Аудио
Идентификатор : 2
Формат : AC-3
Формат/Информация : Audio Coding 3
Расширение режима : CM (complete main)
Параметр Endianness формата : Big
Идентификатор кодека : A_AC3
Продолжительность : 1 ч. 26 м.
Вид битрейта : Постоянный
Битрейт : 192 Кбит/сек
Каналы : 2 канала
Расположение каналов : Front: L R
Частота : 48,0 КГц
Битовая глубина : 16 бит
Метод сжатия : С потерями
Размер потока : 119 Мбайт (10%)
Default : Да
Forced : Нет
Релиз от:



Скачать Чайна.О'Брайен.China.O'Brien.(Роберт.Клауз).[1990.боевик.DVDRip-AVC].[VO].torrent без регистрации
Золото ЗОЛОТАЯ РАЗДАЧА! СКАЧАННОЕ НЕ ЗАСЧИТЫВАЕТСЯ! Золото
Дата: Зарегистрирован   [ Тип: внутренний ] Как тут cкачать?
MAGNET ссылка
MAGNET ссылка


Скачать .torrent

12 KB

Статус: проверено DHT
Скачан: торрент - 124 раз, раздача полностью - 137 раз
Размер: 1,18 GB
Оценка:  - (Голосов: 0)
Поблагодарили: 3
Поделиться ссылкой на эту раздачу с друзьями:
В контактеFacebookОдноклассникиTwitterLivejournalМой МирLiveinternet
 

 
Показать сообщения:    


Вы не можете начинать темы
Вы не можете отвечать на сообщения
Вы не можете редактировать свои сообщения
Вы не можете удалять свои сообщения
Вы не можете голосовать в опросах
Вы не можете прикреплять файлы к сообщениям
Вы можете скачивать файлы