Loading...
Error

Скачать Мой папа псих / Король Калифорнии / King of California (Майкл Кахилл) [2007, комедия, драма, BDRip-AVC] [DVO]ч2+[AVO]+[Sub] торрент без регистрации

 
Статистика раздачи
Размер:  2,63 GB   |    Скачан:  105 раз
Сидов:  1  [  0 KB/s  ]  
 
Автор Сообщение

Marsianka

[] 

«Мы все что-то ищем...»


Информация о фильме
Название: Мой папа псих / Король Калифорнии
Оригинальное название: King of California
Год выхода: 2007
Жанр: комедия, драма
Режиссер: Майкл Кахилл
В ролях: Майкл Дуглас, Ивэн Рэйчел Вуд, Уиллис Буркс II, Лаура Качергус, Пол Либер, Кэтлин Уилхойт, Энн Л. Натан, Артур Сантьяго, Эшли Грин, Йен Хоуппс, Анна Хайа, Уилл Ротхаар, Энни ОДоннелл, Грег Дэвис мл., Джини Хэкетт, Муса КрэйишМакс Гроденчик, Джералд Эмерик, Дэвид Дж. ОДоннелл, Чик Дэниел, Энджел Оквендо, Джейсон Ауэр, Хо-Кван Тсе, Эллисин Эшли Арм, Гари Пол, Гари Эдельман, Эллисон Кервин, Маргарит Мартыньш, Роберта Монтгомери, Тим Пейтон, Томас Спенс, Уиллис Чунг, Виктор Дж. Хо, Бренден Весли Конг

О фильме:
Эксцентричный и чудаковатый Чарли бесконечно донимает свою шестнадцатилетнюю дочь Миранду, чтобы та помогла ему в поисках несметных сокровищ. Чарли уверен, что когда-то в долине Сан-Фернандо в Калифорнии испанские миссионеры зарыли кучу золотых слитков. Отец и дочь отправляются на раскопки мифического клада, но обретают там нечто большее, чем драгоценный клад



Страна: США
Студия: Millennium Films
Продолжительность: 01:33:19
Перевод: Профессиональный (двухголосый закадровый), авторский (одноголосый закадровый)

Файл
Кодек: h.264
Качество: BDRip-AVC
Видео: 2706 Кбит/с, 1024x576, 23.976 кадр/с
1: Русский (AC3, 6 ch, 384 Кбит/с) Профессиональный двухголосый [R5]
2: Русский (AC3, 6 ch, 384 Кбит/с) Профессиональный двухголосый [Электричка]
3: Русский (AC3, 6 ch, 384 Кбит/с) Авторский [Юрий Немахов]
4: Англиский (AC3, 6 ch, 384 Кбит/с)

Субтитры: Русские, английские

Полное имя : King.of.California.2007.x264.BDRip.(AVC).0ptimus.mkv
Формат : Matroska
Версия формата : Version 4 / Version 2
Размер файла : 2,63 Гбайт
Продолжительность : 1 ч. 32 м.
Общий поток : 4050 Кбит/сек
Название фильма : Король Калифорнии (Мой папа псих) | King of California [ 2007] -=BDRip (AVC) by 0ptimus=-
Дата кодирования : UTC 2013-06-08 09:04:35
Программа кодирования : mkvmerge v6.1.0 ('Old Devil') built on Mar 2 2013 14:32:37
Библиотека кодирования : libebml v1.3.0 + libmatroska v1.4.0

Видео
Идентификатор : 1
Формат : AVC
Формат/Информация : Advanced Video Codec
Профиль формата : High@L4.1
Параметр CABAC формата : Да
Параметр ReFrames формата : 10 кадров
Идентификатор кодека : V_MPEG4/ISO/AVC
Продолжительность : 1 ч. 32 м.
Битрейт : 2706 Кбит/сек
Ширина : 1024 пикселя
Высота : 576 пикселей
Соотношение сторон : 16:9
Частота кадров : 23,976 кадра/сек
Цветовое пространство : YUV
Субдискретизация насыщенности : 4:2:0
Битовая глубина : 8 бит
Тип развёртки : Прогрессивная
Бит/(Пиксели*Кадры) : 0.191
Размер потока : 1,70 Гбайт (65%)
Заголовок : Rip by 0ptimus
Библиотека кодирования : x264 core 132 r2310 76a5c3a
Настройки программы : cabac=1 / ref=10 / deblock=1:-3:-3 / analyse=0x3:0x113 / me=umh / subme=11 / psy=1 / psy_rd=1.00:0.20 / mixed_ref=1 / me_range=32 / chroma_me=1 / trellis=2 / 8x8dct=1 / cqm=0 / deadzone=21,11 / fast_pskip=0 / chroma_qp_offset=-3 / threads=4 / lookahead_threads=1 / sliced_threads=0 / nr=0 / decimate=0 / interlaced=0 / bluray_compat=0 / constrained_intra=0 / bframes=8 / b_pyramid=2 / b_adapt=2 / b_bias=0 / direct=3 / weightb=1 / open_gop=0 / weightp=2 / keyint=240 / keyint_min=23 / scenecut=40 / intra_refresh=0 / rc_lookahead=40 / rc=2pass / mbtree=0 / bitrate=2706 / ratetol=1.0 / qcomp=0.60 / qpmin=0 / qpmax=69 / qpstep=4 / cplxblur=20.0 / qblur=0.5 / vbv_maxrate=50000 / vbv_bufsize=50000 / nal_hrd=none / ip_ratio=1.40 / pb_ratio=1.30 / aq=1:1.00
Язык : English

Аудио #1
Идентификатор : 2
Формат : AC-3
Формат/Информация : Audio Coding 3
Расширение режима : CM (complete main)
Идентификатор кодека : A_AC3
Продолжительность : 1 ч. 32 м.
Вид битрейта : Постоянный
Битрейт : 384 Кбит/сек
Каналы : 6 каналов
Расположение каналов : Front: L C R, Side: L R, LFE
Частота : 48,0 КГц
Битовая глубина : 16 бит
Метод сжатия : С потерями
Размер потока : 255 Мбайт (9%)
Заголовок : Двухголосый закадровый [R5] AC3 5.1 384 kbps
Язык : Russian

Аудио #2
Идентификатор : 3
Формат : AC-3
Формат/Информация : Audio Coding 3
Расширение режима : CM (complete main)
Идентификатор кодека : A_AC3
Продолжительность : 1 ч. 32 м.
Вид битрейта : Постоянный
Битрейт : 192 Кбит/сек
Каналы : 2 канала
Расположение каналов : Front: L R
Частота : 48,0 КГц
Битовая глубина : 16 бит
Метод сжатия : С потерями
Размер потока : 128 Мбайт (5%)
Заголовок : Двухголосый звкадровый [Электричка] AC3 2.0 192 kbps
Язык : Russian

Аудио #3
Идентификатор : 4
Формат : AC-3
Формат/Информация : Audio Coding 3
Расширение режима : CM (complete main)
Идентификатор кодека : A_AC3
Продолжительность : 1 ч. 32 м.
Вид битрейта : Постоянный
Битрейт : 384 Кбит/сек
Каналы : 6 каналов
Расположение каналов : Front: L C R, Side: L R, LFE
Частота : 48,0 КГц
Битовая глубина : 16 бит
Метод сжатия : С потерями
Размер потока : 255 Мбайт (9%)
Заголовок : Авторский [Юрий Немахов] AC3 5.1 384 kbps
Язык : Russian

Аудио #4
Идентификатор : 5
Формат : AC-3
Формат/Информация : Audio Coding 3
Расширение режима : CM (complete main)
Идентификатор кодека : A_AC3
Продолжительность : 1 ч. 32 м.
Вид битрейта : Постоянный
Битрейт : 384 Кбит/сек
Каналы : 6 каналов
Расположение каналов : Front: L C R, Side: L R, LFE
Частота : 48,0 КГц
Битовая глубина : 16 бит
Метод сжатия : С потерями
Размер потока : 255 Мбайт (9%)
Заголовок : AC3 5.1 384 kbps
Язык : English

Текст #1
Идентификатор : 6
Формат : UTF-8
Идентификатор кодека : S_TEXT/UTF8
Идентификатор кодека/Информация : UTF-8 Plain Text
Язык : Russian

Текст #2
Идентификатор : 7
Формат : UTF-8
Идентификатор кодека : S_TEXT/UTF8
Идентификатор кодека/Информация : UTF-8 Plain Text
Язык : English

Меню
00:00:00.000 : 01. Welcome Home
00:10:27.001 : 02. The Search Begins
00:24:16.872 : 03. Getting Closer
00:32:06.132 : 04. X Marks the Spot
00:40:10.825 : 05. Miranda's Car
00:49:39.059 : 06. The Costco Plan
00:56:32.472 : 07. Losing the House
01:00:06.978 : 08. The God Key
01:06:32.988 : 09. Slow Speed Chase
01:13:07.716 : 10. Thank You
01:21:16.121 : 11. California Tale
01:26:17.380 : 12. End Credits

--------------------------------------------------------------------------
x264 [info]: frame I:1064 Avg QP:17.14 size: 82407
x264 [info]: frame P:30780 Avg QP:20.19 size: 28444
x264 [info]: frame B:101863 Avg QP:21.53 size: 9045
--------------------------------------------------------------------------
Релиз от:



Скачать Мой.папа.псих.Король.Калифорнии.King.of.California.(Майкл.Кахилл).[2007.комедия.драма.BDRip-AVC].[DVO]ч2+[AVO]+[Sub].torrent без регистрации
Золото ЗОЛОТАЯ РАЗДАЧА! СКАЧАННОЕ НЕ ЗАСЧИТЫВАЕТСЯ! Золото
Дата: Зарегистрирован   [ Тип: внутренний ] Как тут cкачать?
MAGNET ссылка
MAGNET ссылка


Скачать .torrent

14 KB

Статус: проверено DHT
Скачан: торрент - 105 раз, раздача полностью - 12 раз
Размер: 2,63 GB
Оценка:  5 (Голосов: 1)
Поблагодарили: 1
Поделиться ссылкой на эту раздачу с друзьями:
В контактеFacebookОдноклассникиTwitterLivejournalМой МирLiveinternet
 

 
Показать сообщения:    


Вы не можете начинать темы
Вы не можете отвечать на сообщения
Вы не можете редактировать свои сообщения
Вы не можете удалять свои сообщения
Вы не можете голосовать в опросах
Вы не можете прикреплять файлы к сообщениям
Вы можете скачивать файлы