Loading...
Error

Скачать Черная сутана / Черное одеяние / Black Robe (Брюс Бересфорд / Bruce Beresford) [1991, Драма, приключения, HDRip] [AVO] (В. Горчаков) торрент без регистрации

 
Статистика раздачи
Размер:  1,46 GB   |    Скачан:  126 раз
Сидов:  1  [  0 KB/s  ]  
 
Автор Сообщение

leon030982

[] 

Черная сутана / Черное одеяние / Black Robe

Год выпуска: 1991
Страна: Канада, Австралия, США
Жанр: Драма, приключения
Продолжительность: 01:36:20
Перевод: Авторский (одноголосый закадровый) [Василий Горчаков]
Cубтитры: нет
Режиссер: Брюс Бересфорд / Bruce Beresford
В ролях: Лотер Блюто, Аден Янг, Сандрин Холт, Аугуст Шелленберг, Танту Кардинал, Билли Ту Риверз, Лоуренс Бэйн, Харрисон Лью, Уэсли Коте, Фрэнк Уилсон
Описание: Действие происходит в XVII столетии в Новом Свете. Отец Лафорг — священник, которого Шамплен, основатель и губернатор Квебека, посылает в пограничную зону, чтобы обращать индейцев племени гуронов в истинную веру. Поклявшись быть проводником и защитником Лафорга, в путь отправляется и вождь алгонкинов Хомина, взявший с собой жену, юного сына и очень красивую дочь Аннуку, еще не достигшую совершеннолетия. Их также сопровождают несколько его воинов со своими семьями. Побуждаемый в равной степени страстью к Аннуке и стремлением служить Господу, к компании присоединяется молодой французский поселенец Даниэль. Вместе они отправляются в путешествие, в котором никого из них не ждет ничего хорошего…
Sample | IMDB | КиноПоиск
Тип релиза: HDRip [исх. BDRip 1080p]
Формат видео: AVI
Видео: 704x368 (1.91:1), 25 fps, XviD build 50, 1972 kbps avg, 0.30 bit/pixel
Аудио: 48 kHz, AC3 Dolby Digital, 2/0 (L,R) ch, 192.00 kbps avg [Russian_AVO]
General
Complete name : E:\Мои раздачи\Black Robe_HDRip_RG_All_Films.avi
Format : AVI
Format/Info : Audio Video Interleave
File size : 1.46 GiB
Duration : 1h 36mn
Overall bit rate : 2 175 Kbps
Writing application : VirtualDubMod 1.6.0.0 SURROUND (build 2560/release)
Writing library : VirtualDubMod build 2560/release
Video
ID : 0
Format : MPEG-4 Visual
Format profile : Advanced Simple@L5
Format settings, BVOP : Yes
Format settings, QPel : No
Format settings, GMC : No warppoints
Format settings, Matrix : Custom
Codec ID : XVID
Codec ID/Hint : XviD
Duration : 1h 36mn
Bit rate : 1 973 Kbps
Width : 704 pixels
Height : 368 pixels
Display aspect ratio : 1.913
Frame rate : 25.000 fps
Color space : YUV
Chroma subsampling : 4:2:0
Bit depth : 8 bits
Scan type : Progressive
Compression mode : Lossy
Bits/(Pixel*Frame) : 0.305
Stream size : 1.33 GiB (91%)
Writing library : XviD 1.2.1 (UTC 2008-12-04)
Audio
ID : 1
Format : AC-3
Format/Info : Audio Coding 3
Mode extension : CM (complete main)
Codec ID : 2000
Duration : 1h 36mn
Bit rate mode : Constant
Bit rate : 192 Kbps
Channel(s) : 2 channels
Channel positions : Front: L R
Sampling rate : 48.0 KHz
Bit depth : 16 bits
Compression mode : Lossy
Stream size : 132 MiB (9%)
Alignment : Split accross interleaves
Interleave, duration : 40 ms (1.00 video frame)
Interleave, preload duration : 500 ms



Скачать Черная.сутана.Черное.одеяние.Black.Robe.(Брюс.Бересфорд.Bruce.Beresford).[1991.Драма.приключения.HDRip].[AVO].(В.Горчаков).torrent без регистрации
Золото ЗОЛОТАЯ РАЗДАЧА! СКАЧАННОЕ НЕ ЗАСЧИТЫВАЕТСЯ! Золото
Дата: Зарегистрирован   [ Тип: внутренний ] Как тут cкачать?
MAGNET ссылка
MAGNET ссылка


Скачать .torrent

15 KB

Статус: проверено DHT
Скачан: торрент - 126 раз, раздача полностью - 11 раз
Размер: 1,46 GB
Оценка:  - (Голосов: 0)
Поблагодарили: 3
Поделиться ссылкой на эту раздачу с друзьями:
В контактеFacebookОдноклассникиTwitterLivejournalМой МирLiveinternet
 

 
Показать сообщения:    


Вы не можете начинать темы
Вы не можете отвечать на сообщения
Вы не можете редактировать свои сообщения
Вы не можете удалять свои сообщения
Вы не можете голосовать в опросах
Вы не можете прикреплять файлы к сообщениям
Вы можете скачивать файлы