Loading...
Error

/ Speed ( / Jan de Bont) [1994, , , , BDRip] [Dub] + [AVO] ()

 
1,46 GB   |    :  146
1  [  0 KB/s  ]  
 

leon030982

[] 

/ Speed

: 1994
: / 20th Century Fox Film Corporation
: , ,
: 01:55:55
#1: ( )
VHS
#2: ( ) VHS
C:
:
/ Jan de Bont
:
(Officer Jack Traven), (Annie Porter), (Howard Payne), (Capt. McMahon), (Det. Harold Harry Temple), (Stephens), (Jaguar Owner), (Norwood), (Helen), (Sam)
:
, , . , . , , , .
, , . , , , . , . . , , .

| IMDB | |
: BDRip [SPEED_BD_BLUEBIRD]
: AVI
: 720x304 (2.37:1), 23.976 fps, XviD build 73 ~1407 kbps avg, 0.27 bit/pixel
#1: 48 kHz, AC3 Dolby Digital, 2/0 (L,R) ch, ~192.00 kbps avg (DUB)
#2: 48 kHz, AC3 Dolby Digital, 2/0 (L,R) ch, ~192.00 kbps avg (AVO)

:

General
Complete name : D:\\ \Skorost_1994_BDRip_by_Dalemake.avi
Format : AVI
Format/Info : Audio Video Interleave
File size : 1.46 GiB
Duration : 1h 55mn
Overall bit rate : 1 806 Kbps
Writing application : VirtualDubMod 1.5.10.3 | www.virtualdub-fr.org || (build 2550/release)
Writing library : VirtualDubMod build 2550/release
Video
ID : 0
Format : MPEG-4 Visual
Format profile : Advanced Simple@L5
Format settings, BVOP : 1
Format settings, QPel : No
Format settings, GMC : No warppoints
Format settings, Matrix : Custom
Codec ID : XVID
Codec ID/Hint : XviD
Duration : 1h 55mn
Bit rate : 1 408 Kbps
Width : 720 pixels
Height : 304 pixels
Display aspect ratio : 2.35:1
Frame rate : 23.976 fps
Color space : YUV
Chroma subsampling : 4:2:0
Bit depth : 8 bits
Scan type : Progressive
Compression mode : Lossy
Bits/(Pixel*Frame) : 0.268
Stream size : 1.14 GiB (78%)
Writing library : XviD 73
Audio #1
ID : 1
Format : AC-3
Format/Info : Audio Coding 3
Mode extension : CM (complete main)
Format settings, Endianness : Big
Codec ID : 2000
Duration : 1h 55mn
Bit rate mode : Constant
Bit rate : 192 Kbps
Channel(s) : 2 channels
Channel positions : Front: L R
Sampling rate : 48.0 KHz
Bit depth : 16 bits
Compression mode : Lossy
Stream size : 159 MiB (11%)
Alignment : Split accross interleaves
Interleave, duration : 42 ms (1.00 video frame)
Interleave, preload duration : 500 ms
Audio #2
ID : 2
Format : AC-3
Format/Info : Audio Coding 3
Mode extension : CM (complete main)
Format settings, Endianness : Big
Codec ID : 2000
Duration : 1h 55mn
Bit rate mode : Constant
Bit rate : 192 Kbps
Channel(s) : 2 channels
Channel positions : Front: L R
Sampling rate : 48.0 KHz
Bit depth : 16 bits
Compression mode : Lossy
Delay relative to video : 1s 0ms
Stream size : 159 MiB (11%)
Alignment : Split accross interleaves
Interleave, duration : 42 ms (1.00 video frame)
Interleave, preload duration : 500 ms




.Speed.(...Jan.de.Bont).[1994....BDRip].[Dub].+.[AVO].().torrent
  ! ! 
:   [ : ] c?
MAGNET
MAGNET


.torrent

15 KB

: DHT
: - 146 , - 95
: 1,46 GB
4,8 (: 4)
: 7
:
 FacebookTwitterLivejournal Liveinternet
 

 
: