Loading...
Error

Скачать Младенец на прогулке, или ползком от гангстеров / Baby's day out (Патрик Рид Джонсон / Patrick Read Johnson) [1994, комедия, семейный, DVDRip] [MVO] (1 канал) + [AVO] (А.Гаврилов) торрент без регистрации

 
Статистика раздачи
Размер:  1,63 GB   |    Скачан:  285 раз
Сидов:  1  [  0 KB/s  ]  
 
Автор Сообщение

leon030982

[] 

Младенец на прогулке, или ползком от гангстеров / Baby's Day Out


Год выпуска: 1994
Страна: США
Жанр: Комедия, Cемейный
Продолжительность: 01:34:48
Перевод 1: Профессиональный (многоголосый, закадровый) [1-ый канал]
Перевод 2: Авторский (одноголосный, закадровый) [А.Гаврилов]

Режиссер: Patrick Read Johnson

В ролях: Джо Мантенья, Лэра Флинн Бойл, Джо Пантолиано, Брайан Хэйли, Синтия Никсон, Фред Долтон Томпсон, Мэттью Глэйв, Джон Невилл

Описание: Из богатой семьи похищают совершенно замечательного девятимесячного младенца, который обожает книжку с картинками про малыша Бу. Злодеи требуют огромный выкуп, но шустрого не по летам младенца горе-похитители ухитрились потерять - он от них уполз. Следует много смешных приключений, в результате которых выяснится, что мальчик следовал по маршруту малыша Бу из любимой книжки.




Качество: DVDRip
Формат: AVI
Видео кодек: XviD
Аудио кодек: AC3
Видео: 704x384 (1.83:1) 25 fps XviD build 64 1801 kbps avg 0.27 bit/pixel
Аудио 1: 48 kHz AC3 Dolby Digital 2/0 (L,R) ch 192.00 kbps avg [MVO]
Аудио 2: 48 kHz AC3 Dolby Digital 6 ch 384 kbps [AVO]
() В этом фильме использованы многие элементы из других фильмов Джона Хьюза (англ. John Hughes) — «Один дома» и «Деннис-мучитель» (англ. Dennis the Menace) и мультипликационных фильмов Рубе Голдберга (англ. Rube Goldberg).
() На основе этого фильма была выпущена игра для игровых приставок Sega Mega Drive и Sega Genesis.
E:\INTERNET\Младенец на прогулке.1994.[MVO_ОРТ] + [AVO_Гаврилов].avi
General
Complete name : E:\INTERNET\Младенец на прогулке.1994.[MVO_ОРТ] + [AVO_Гаврилов].avi
Format : AVI
Format/Info : Audio Video Interleave
File size : 1.63 GiB
Duration : 1h 34mn
Overall bit rate : 2 457 Kbps
Writing application : VirtualDubMod 1.5.10.3 (build 2550/release)
Writing library : VirtualDubMod build 2550/release
Video #0
ID : 0
Format : MPEG-4 Visual
Format profile : Advanced Simple@L5
Format settings, BVOP : 1
Format settings, QPel : No
Format settings, GMC : No warppoints
Format settings, Matrix : Custom
Codec ID : XVID
Codec ID/Hint : XviD
Duration : 1h 34mn
Bit rate : 1 803 Kbps
Width : 704 pixels
Height : 384 pixels
Display aspect ratio : 1.85:1
Frame rate : 25.000 fps
Color space : YUV
Chroma subsampling : 4:2:0
Bit depth : 8 bits
Scan type : Progressive
Compression mode : Lossy
Bits/(Pixel*Frame) : 0.267
Stream size : 1.19 GiB (73%)
Writing library : XviD 64
Audio #1
ID : 1
Format : AC-3
Format/Info : Audio Coding 3
Mode extension : CM (complete main)
Format settings, Endianness : Big
Codec ID : 2000
Duration : 1h 34mn
Bit rate mode : Constant
Bit rate : 192 Kbps
Channel(s) : 2 channels
Channel positions : Front: L R
Sampling rate : 48.0 KHz
Bit depth : 16 bits
Compression mode : Lossy
Stream size : 130 MiB (8%)
Alignment : Split accross interleaves
Interleave, duration : 40 ms (1.00 video frame)
Interleave, preload duration : 500 ms
Audio #2
ID : 2
Format : AC-3
Format/Info : Audio Coding 3
Mode extension : CM (complete main)
Format settings, Endianness : Big
Codec ID : 2000
Duration : 1h 34mn
Bit rate mode : Constant
Bit rate : 448 Kbps
Channel(s) : 6 channels
Channel positions : Front: L C R, Side: L R, LFE
Sampling rate : 48.0 KHz
Bit depth : 16 bits
Compression mode : Lossy
Stream size : 304 MiB (18%)
Alignment : Split accross interleaves
Interleave, duration : 40 ms (1.00 video frame)
Interleave, preload duration : 500 ms



Скачать Младенец.на.прогулке.или.ползком.от.гангстеров.Baby's.day.out.(Патрик.Рид.Джонсон.Patrick.Read.Johnson).[1994.комедия.семейный.DVDRip].[MVO].(1.канал).+.[AVO].(А.Гаврилов).torrent без регистрации
Золото ЗОЛОТАЯ РАЗДАЧА! СКАЧАННОЕ НЕ ЗАСЧИТЫВАЕТСЯ! Золото
Дата: Зарегистрирован   [ Тип: внутренний ] Как тут cкачать?
MAGNET ссылка
MAGNET ссылка


Скачать .torrent

17 KB

Статус: проверено DHT
Скачан: торрент - 285 раз, раздача полностью - 101 раз
Размер: 1,63 GB
Оценка:  5 (Голосов: 1)
Поблагодарили: 3
Поделиться ссылкой на эту раздачу с друзьями:
В контактеFacebookОдноклассникиTwitterLivejournalМой МирLiveinternet
 

 
Показать сообщения:    


Вы не можете начинать темы
Вы не можете отвечать на сообщения
Вы не можете редактировать свои сообщения
Вы не можете удалять свои сообщения
Вы не можете голосовать в опросах
Вы не можете прикреплять файлы к сообщениям
Вы можете скачивать файлы