Loading...
Error

Скачать Сошедшие с небес / Рухнувшие небеса / Falling Skies (сезон 03) (Грег Биман, Холли Дэйл, Серджо Мимика-Геззан) [2013, фантастика, боевик, триллер, WEB-DLRip] [1080p] [MVO (LostFilm)] торрент без регистрации

 
Статистика раздачи
Размер:  17,34 GB   |    Скачан:  273 раза

Полного источника не было: 24 минуты

 
Автор Сообщение

МихаНЕзатор

[] 

Информация о фильме
Название: Сошедшие с небес / Рухнувшие небеса
Оригинальное название: Falling Skies
Год выхода: 2013
Жанр: Фантастика
Режиссер: Грег Биман, Холли Дэйл, Серджо Мимика-Геззан

В ролях: Ноа Уайли, Максим Найт, Сейшелл Гэбриел, Терри ОКуинн, Коннор Джессуп, Питер Шинкода, Дрю Рой, Мун Бладгуд, Уилл Пэттон, Сара Картер, Колин Каннингэм и др.

О фильме:
В результате инопланетного вторжения на Землю один из сыновей профессора истории Тома Мэйсона попадает в плен, а его жена гибнет. Она оказалась одной из миллионов людей, погибших от рук пришельцев. Люди, которым посчастливилось остаться в живых, вступают в партизанские отряды, объединяются для оказания сопротивления захватчикам.
Землю атакуют два вида инопланетян прямоходящие, прекрасно вооруженные роботы Mechs и насекомоподобные Skitters. Людям приходится несладко, а борьба с незваными гостями становится все сложнее из-за того, что последние используют современное оборудование, с помощью которого можно легко определить местонахождение больших групп людей. Именно поэтому остается одна надежда на партизан, которые боролись с противником небольшими группами. Немалых усилий, а часто и человеческих жизней стоит выявление слабых сторон захватчиков.



Страна: США, Канада
Студия: DreamWorks Television, Invasion Productions
Продолжительность: ~00:42:00
Перевод: Профессиональный (многоголосый, закадровый) - LostFilm

Файл
Кодек: x264
Качество: WEB-DL 1080p | LostFilm
Видео: MPEG-4 AVC, ~ 5000 Кбит/с, 1920x1080
Звук: Русский, английский (AC3, 6 ch, 384 Кбит/с)
Субтитры: Русские, английские

Релиз от: hdtracker by CEZAR
Работа со звуком: CEZAR
Released by CEZAR
Русские субтитры: есть (Notabenoid)

08.08.2013 г. торент обновлён, добавлена 10 серия, сезон полностью!

Уникальный идентификатор : 252874111601497579441951855897266299602 (0xBE3DC8495BD1732998B1E2AF120F22D2)
Полное имя : Falling.Skies.S03.1080p.WEB-DL.DD5.1.H.264Falling.Skies.S03E01.1080p.WEB-DL.DD5.1.H.264.mkv
Формат : Matroska
Версия формата : Version 4 / Version 2
Размер файла : 1,71 Гбайт
Продолжительность : 42 м.
Общий поток : 5804 Кбит/сек
Название фильма : Created by filin1984 for Кинозал.ТВ
Дата кодирования : UTC 2013-06-17 09:37:08
Программа кодирования : mkvmerge v6.2.0 ('Promised Land') built on Apr 28 2013 12:22:01
Библиотека кодирования : libebml v1.3.0 + libmatroska v1.4.0

Видео
Идентификатор : 1
Формат : AVC
Формат/Информация : Advanced Video Codec
Профиль формата : High@L4.0
Параметр CABAC формата : Да
Параметр ReFrames формата : 4 кадра
Параметр GOP формата : N=2
Идентификатор кодека : V_MPEG4/ISO/AVC
Продолжительность : 42 м.
Битрейт : 5080 Кбит/сек
Ширина : 1920 пикселей
Высота : 1080 пикселей
Соотношение сторон : 16:9
Режим частоты кадров : Постоянный
Частота кадров : 23,976 кадра/сек
Цветовое пространство : YUV
Субдискретизация насыщенности : 4:2:0
Битовая глубина : 8 бит
Тип развёртки : Прогрессивная
Бит/(Пиксели*Кадры) : 0.102
Размер потока : 1,49 Гбайт (88%)
Заголовок : Fall Skies - S03E01 On Thin Ice [WEB-DL 1080p]
Язык : English
Default : Да
Forced : Нет
Основные цвета : BT.709
Характеристики трансфера : BT.709
Коэффициенты матрицы : BT.709

Аудио #1
Идентификатор : 2
Формат : AC-3
Формат/Информация : Audio Coding 3
Расширение режима : CM (complete main)
Параметр Endianness формата : Big
Идентификатор кодека : A_AC3
Продолжительность : 42 м.
Вид битрейта : Постоянный
Битрейт : 224 Кбит/сек
Каналы : 2 канала
Расположение каналов : Front: L R
Частота : 48,0 КГц
Битовая глубина : 16 бит
Метод сжатия : С потерями
Размер потока : 67,5 Мбайт (4%)
Заголовок : MVO LostFilm [AC3 2.0 224kbps]
Язык : Russian
Default : Да
Forced : Нет

Аудио #2
Идентификатор : 3
Формат : AC-3
Формат/Информация : Audio Coding 3
Расширение режима : CM (complete main)
Параметр Endianness формата : Big
Идентификатор кодека : A_AC3
Продолжительность : 42 м.
Вид битрейта : Постоянный
Битрейт : 384 Кбит/сек
Каналы : 6 каналов
Расположение каналов : Front: L C R, Side: L R, LFE
Частота : 48,0 КГц
Битовая глубина : 16 бит
Метод сжатия : С потерями
Размер потока : 116 Мбайт (7%)
Заголовок : Original [AC3 5.1 384kbps]
Язык : English
Default : Нет
Forced : Нет

Текст #1
Идентификатор : 4
Формат : ASS
Идентификатор кодека : S_TEXT/ASS
Идентификатор кодека/Информация : Advanced Sub Station Alpha
Метод сжатия : Без потерь
Язык : Russian
Default : Нет
Forced : Нет

Текст #2
Идентификатор : 5
Формат : UTF-8
Идентификатор кодека : S_TEXT/UTF8
Идентификатор кодека/Информация : UTF-8 Plain Text
Заголовок : RUS Notabenoid [SRT]
Язык : Russian
Default : Нет
Forced : Нет

Текст #3
Идентификатор : 6
Формат : ASS
Идентификатор кодека : S_TEXT/ASS
Идентификатор кодека/Информация : Advanced Sub Station Alpha
Метод сжатия : Без потерь
Заголовок : ENG addic7ed [ASS]
Язык : English
Default : Нет
Forced : Нет

Текст #4
Идентификатор : 7
Формат : UTF-8
Идентификатор кодека : S_TEXT/UTF8
Идентификатор кодека/Информация : UTF-8 Plain Text
Заголовок : ENG addic7ed [SRT]
Язык : English
Default : Нет
Forced : Нет

Общее
Уникальный идентификатор : 186708307644610937491753407249768373043 (0x8C76B6494B006A3F8CD1A858CC11DB33)
Полное имя : Falling.Skies.S03.1080p.WEB-DL.DD5.1.H.264Falling.Skies.S03E02.1080p.WEB-DL.DD5.1.H.264.mkv
Формат : Matroska
Версия формата : Version 4 / Version 2
Размер файла : 1,75 Гбайт
Продолжительность : 42 м.
Общий поток : 5936 Кбит/сек
Название фильма : Created by filin1984 for Кинозал.ТВ
Дата кодирования : UTC 2013-06-17 09:40:24
Программа кодирования : mkvmerge v6.2.0 ('Promised Land') built on Apr 28 2013 12:22:01
Библиотека кодирования : libebml v1.3.0 + libmatroska v1.4.0

Видео
Идентификатор : 1
Формат : AVC
Формат/Информация : Advanced Video Codec
Профиль формата : High@L4.0
Параметр CABAC формата : Да
Параметр ReFrames формата : 4 кадра
Идентификатор кодека : V_MPEG4/ISO/AVC
Продолжительность : 42 м.
Битрейт : 5210 Кбит/сек
Ширина : 1920 пикселей
Высота : 1080 пикселей
Соотношение сторон : 16:9
Режим частоты кадров : Постоянный
Частота кадров : 23,976 кадра/сек
Цветовое пространство : YUV
Субдискретизация насыщенности : 4:2:0
Битовая глубина : 8 бит
Тип развёртки : Прогрессивная
Бит/(Пиксели*Кадры) : 0.105
Размер потока : 1,53 Гбайт (88%)
Заголовок : Falling Skies - S03E02 Collateral Damage [WEB-DL 1080p]
Язык : English
Default : Да
Forced : Нет
Основные цвета : BT.709
Характеристики трансфера : BT.709
Коэффициенты матрицы : BT.709

Аудио #1
Идентификатор : 2
Формат : AC-3
Формат/Информация : Audio Coding 3
Расширение режима : CM (complete main)
Параметр Endianness формата : Big
Идентификатор кодека : A_AC3
Продолжительность : 42 м.
Вид битрейта : Постоянный
Битрейт : 224 Кбит/сек
Каналы : 2 канала
Расположение каналов : Front: L R
Частота : 48,0 КГц
Битовая глубина : 16 бит
Метод сжатия : С потерями
Размер потока : 67,5 Мбайт (4%)
Заголовок : MVO LostFilm [AC3 2.0 224kbps]
Язык : Russian
Default : Да
Forced : Нет

Аудио #2
Идентификатор : 3
Формат : AC-3
Формат/Информация : Audio Coding 3
Расширение режима : CM (complete main)
Параметр Endianness формата : Big
Идентификатор кодека : A_AC3
Продолжительность : 42 м.
Вид битрейта : Постоянный
Битрейт : 384 Кбит/сек
Каналы : 6 каналов
Расположение каналов : Front: L C R, Side: L R, LFE
Частота : 48,0 КГц
Битовая глубина : 16 бит
Метод сжатия : С потерями
Размер потока : 116 Мбайт (6%)
Заголовок : Original [AC3 5.1 384kbps]
Язык : English
Default : Нет
Forced : Нет

Текст #1
Идентификатор : 4
Формат : ASS
Идентификатор кодека : S_TEXT/ASS
Идентификатор кодека/Информация : Advanced Sub Station Alpha
Метод сжатия : Без потерь
Заголовок : RUS Notabenoid [ASS]
Язык : Russian
Default : Нет
Forced : Нет

Текст #2
Идентификатор : 5
Формат : UTF-8
Идентификатор кодека : S_TEXT/UTF8
Идентификатор кодека/Информация : UTF-8 Plain Text
Заголовок : RUS Notabenoid [SRT]
Язык : Russian
Default : Нет
Forced : Нет

Текст #3
Идентификатор : 6
Формат : ASS
Идентификатор кодека : S_TEXT/ASS
Идентификатор кодека/Информация : Advanced Sub Station Alpha
Метод сжатия : Без потерь
Заголовок : ENG addic7ed [ASS]
Язык : English
Default : Нет
Forced : Нет

Текст #4
Идентификатор : 7
Формат : UTF-8
Идентификатор кодека : S_TEXT/UTF8
Идентификатор кодека/Информация : UTF-8 Plain Text
Заголовок : ENG addic7ed [SRT]
Язык : English
Default : Нет
Forced : Нет



Скачать Сошедшие.с.небес.Рухнувшие.небеса.Falling.Skies.(сезон.03).(Грег.Биман.Холли.Дэйл.Серджо.Мимика-Геззан).[2013.фантастика.боевик.триллер.WEB-DLRip].[1080p].[MVO.(LostFilm)].torrent без регистрации
Золото ЗОЛОТАЯ РАЗДАЧА! СКАЧАННОЕ НЕ ЗАСЧИТЫВАЕТСЯ! Золото
Дата: Зарегистрирован   [ Тип: внутренний ] Как тут cкачать?
MAGNET ссылка
MAGNET ссылка


Скачать .torrent

45 KB

Статус: проверено DHT
Скачан: торрент - 273 раз, раздача полностью - 133 раз
Размер: 17,34 GB
Оценка:  5 (Голосов: 4)
Поблагодарили: 8
Поделиться ссылкой на эту раздачу с друзьями:
В контактеFacebookОдноклассникиTwitterLivejournalМой МирLiveinternet
 

 

МихаНЕзатор

[] 

Раздача обновлена
 
Показать сообщения:    


Вы не можете начинать темы
Вы не можете отвечать на сообщения
Вы не можете редактировать свои сообщения
Вы не можете удалять свои сообщения
Вы не можете голосовать в опросах
Вы не можете прикреплять файлы к сообщениям
Вы можете скачивать файлы