Loading...
Error

Скачать Белая королева / The White Queen (сезон 01) (Колин Тиг, Джеймс Кент, Джэми Пэйн) [2013, драма, история, HDTVRip] [MVO (BaibaKo)] торрент без регистрации

 
Статистика раздачи
Размер:  8,33 GB   |    Скачан:  221 раз
Сидов:  1  [  0 KB/s  ]  
 
Автор Сообщение

МихаНЕзатор

[] 

Год выпуска: 2013
Страна: Великобритания, США (BBC, Starz!)
Жанр: драма, история
Продолжительность: 00:58:00

Перевод: Профессиональный (многоголосый закадровый) (Baibako)
Русские субтитры: нет
Режиссёр: Колин Тиг, Джеймс Кент, Джэми Пэйн

В ролях: Джулиет Обри, Анайрин Барнард, Ребекка Фергюсон, Джеймс Фрейн, Кэролайн Гудолл, Аманда Хейл, Макс Айронс, Бен Лэмб и другие

Описание: "Белая королева" - это захватывающая история о трех разных, и вместе с тем одинаково амбициозных женщинах, стремящихся добиться власти любыми способами Елизаветы Вудвиль, Маргариты Бофорт и Анны Невилл. Это потрясающие сюжеты о любви и утрате, обольщении и обмане, предательстве и убийствах. Игра престолов среди одних из самых безжалостных игроков в истории, которые не остановятся ни перед чем, чтобы достичь своей цели.

Доп. информация: Релиз-группа:

Перевод: Янина Галицкая
Озвучка: Светлана Доманова, Лира Грим, Артемий Мирон и Виталий Ткаченко

Обложка: tvblog



Качество: HDTVRip
Формат: AVI
Видео кодек: XviD
Аудио кодек: MP3
Видео: XviD, ~ 1499 Кбит/с, 720x400
Аудио: Rus: MP3, 2 канала, 48,0 КГц, 192 Кбит/сек
Аудио 2: Eng: MP3, 2 канала, 48,0 КГц, 192 Кбит/сек

20.08.2013 г. торент обновлён, добавлена 9-10 серия, сезон полгостью!


Format : AVI
Format/Info : Audio Video Interleave
File size : 795 MiB
Duration : 58mn 33s
Overall bit rate : 1 898 Kbps
Writing application : VirtualDubMod 1.5.10.2 (build 2542/release)
Writing library : VirtualDubMod build 2542/release

Video
ID : 0
Format : MPEG-4 Visual
Format profile : Advanced Simple@L5
Format settings, BVOP : Yes
Format settings, QPel : No
Format settings, GMC : No warppoints
Format settings, Matrix : Default (H.263)
Codec ID : XVID
Codec ID/Hint : XviD
Duration : 58mn 33s
Bit rate : 1 499 Kbps
Width : 720 pixels
Height : 400 pixels
Display aspect ratio : 16:9
Frame rate : 25.000 fps
Color space : YUV
Chroma subsampling : 4:2:0
Bit depth : 8 bits
Scan type : Progressive
Bits/(Pixel*Frame) : 0.208
Stream size : 628 MiB (79%)
Writing library : XviD 1.2.1 (UTC 2008-12-04)

Audio #1
ID : 1
Format : MPEG Audio
Format version : Version 1
Format profile : Layer 3
Mode : Joint stereo
Mode extension : MS Stereo
Codec ID : 55
Codec ID/Hint : MP3
Duration : 58mn 33s
Bit rate mode : Constant
Bit rate : 192 Kbps
Channel(s) : 2 channels
Sampling rate : 48.0 KHz
Stream size : 80.4 MiB (10%)
Alignment : Aligned on interleaves
Interleave, duration : 40 ms (1.00 video frame)
Interleave, preload duration : 504 ms
Writing library : LAME3.99r
Encoding settings : -m j -V 4 -q 2 -lowpass 18.6 -b 192

Audio #2
ID : 2
Format : MPEG Audio
Format version : Version 1
Format profile : Layer 3
Mode : Joint stereo
Mode extension : MS Stereo
Codec ID : 55
Codec ID/Hint : MP3
Duration : 58mn 33s
Bit rate mode : Constant
Bit rate : 192 Kbps
Channel(s) : 2 channels
Sampling rate : 48.0 KHz
Stream size : 80.4 MiB (10%)
Alignment : Aligned on interleaves
Interleave, duration : 40 ms (1.00 video frame)
Interleave, preload duration : 504 ms
Writing library : LAME3.99r
Encoding settings : -m j -V 4 -q 2 -lowpass 18.6 -b 192



Скачать Белая.королева.The.White.Queen.(сезон.01).(Колин.Тиг.Джеймс.Кент.Джэми.Пэйн).[2013.драма.история.HDTVRip].[MVO.(BaibaKo)].torrent без регистрации
Золото ЗОЛОТАЯ РАЗДАЧА! СКАЧАННОЕ НЕ ЗАСЧИТЫВАЕТСЯ! Золото
Дата: Зарегистрирован   [ Тип: внутренний ] Как тут cкачать?
MAGNET ссылка
MAGNET ссылка


Скачать .torrent

22 KB

Статус: проверено DHT
Скачан: торрент - 221 раз, раздача полностью - 259 раз
Размер: 8,33 GB
Оценка:  5 (Голосов: 2)
Поблагодарили: 5
Поделиться ссылкой на эту раздачу с друзьями:
В контактеFacebookОдноклассникиTwitterLivejournalМой МирLiveinternet
 

 

МихаНЕзатор

[] 

Раздача обновлена, сезон завершён
 
Показать сообщения:    


Вы не можете начинать темы
Вы не можете отвечать на сообщения
Вы не можете редактировать свои сообщения
Вы не можете удалять свои сообщения
Вы не можете голосовать в опросах
Вы не можете прикреплять файлы к сообщениям
Вы можете скачивать файлы