Loading...
Error

Скачать Выход Дракона / Остров Дракона / Enter The Dragon (Роберт Клауз) [1973, боевик, триллер, драма, криминал, BDRip-AVC] [Dub]+[MVO]+[AVO]x6+[Sub] торрент без регистрации

 
Статистика раздачи
Размер:  4,05 GB   |    Скачан:  188 раз
Сидов:  1  [  0 KB/s  ]  
 
Автор Сообщение

Marsianka

[] 

«Their deadly mission: to crack the forbidden island of Han!»


Информация о фильме
Название: Выход Дракона / Остров Дракона
Оригинальное название: Enter The Dragon
Год выхода: 1973
Жанр: боевик, триллер, драма, криминал
Режиссер: Роберт Клауз
В ролях: Брюс Ли, Джон Саксон, Анджела Мао, Джим Келли, Роберт Уолл, Боло Йенг, Бетти Чунг, Джеффри Викс, Питер Арчер, Хо Ли Ян, Марлен Кларк, Аллан Кент, Уильям Келлер, Мики Карузо, Пэт Э. Джонсон, Дарнелл Гарсиа

О фильме:
События переносят нас на остров, превращенный в крепость главарем боевиков, открывшим там школу боевых искусств, которая является лишь ширмой, маскирующей контрабандный бизнес. В эту цитадель проникает герой Брюса Ли и становится участником жестокого турнира



Страна: США, Гонконг
Студия: Concord Productions Inc., Sequoia Productions, Warner Bros. Pictures Co.
Продолжительность: 01:42:33
Перевод: Дублированный, профессиональный (многоголосый закадровый), авторский (одноголосый закадровый)

Файл
Кодек: h.264
Качество: BDRip-AVC (Enter the Dragon (1973) [40th Anniversary Remastered Edition] Blu-ray 1080p AVC DD5.1-EbP)
Видео: 2776 Кбит/с, 1024x426, 23.976 кадр/с
1: Русский (AC3, 6 ch, 384 Кбит/с) / Дублированный
2: Русский (AC3, 6 ch, 384 Кбит/с) / Профессиональный многоголосый (Superbit)
3: Русский (AC3, 2 ch, 192 Кбит/с) / Авторский одноголосый (Алексей Михалев)
4: Английский (AC3, 6 ch, 384 Кбит/с)
Отдельно:
5: Русский (AC3, 6 ch, 384 Кбит/с) / Авторский одноголосый (Владимир Королев)
6: Русский (AC3, 2 ch, 192 Кбит/с) / Авторский одноголосый (Леонид Володарский)
7: Русский (AC3, 2 ch, 192 Кбит/с) / Авторский одноголосый (Юрий Толбин)
8: Русский (AC3, 6 ch, 384 Кбит/с) / Авторский одноголосый (Юрий Живов)
9: Русский (AC3, 6 ch, 384 Кбит/с) / Авторский одноголосый (Василий Горчаков)

Субтитры: Русские, английские

Полное имя : Enter.The.Dragon.1973.x264.BDRip.(AVC).0ptimus_ALL_AUDIO.mkv
Формат : Matroska
Версия формата : Version 4 / Version 2
Размер файла : 4,05 Гбайт
Продолжительность : 1 ч. 42 м.
Общий поток : 5660 Кбит/сек
Название фильма : Выход Дракона (Остров Дракона) | Enter the Dragon [1973] -=BDRip (AVC) by 0ptimus=-
Дата кодирования : UTC 2013-06-17 13:36:20
Программа кодирования : mkvmerge v6.1.0 ('Old Devil') built on Mar 2 2013 14:32:37
Библиотека кодирования : libebml v1.3.0 + libmatroska v1.4.0

Видео
Идентификатор : 1
Формат : AVC
Формат/Информация : Advanced Video Codec
Профиль формата : High@L4.1
Параметр CABAC формата : Да
Параметр ReFrames формата : 9 кадров
Идентификатор кодека : V_MPEG4/ISO/AVC
Продолжительность : 1 ч. 42 м.
Битрейт : 2776 Кбит/сек
Ширина : 1024 пикселя
Высота : 426 пикселей
Соотношение сторон : 2,40:1
Частота кадров : 23,976 кадра/сек
Цветовое пространство : YUV
Субдискретизация насыщенности : 4:2:0
Битовая глубина : 8 бит
Тип развёртки : Прогрессивная
Бит/(Пиксели*Кадры) : 0.265
Размер потока : 1,91 Гбайт (47%)
Заголовок : Rip by 0ptimus
Библиотека кодирования : x264 core 133 r2334 a3ac64b
Настройки программы : cabac=1 / ref=9 / deblock=1:-3:-3 / analyse=0x3:0x113 / me=umh / subme=11 / psy=1 / psy_rd=1.00:0.20 / mixed_ref=1 / me_range=32 / chroma_me=1 / trellis=2 / 8x8dct=1 / cqm=0 / deadzone=21,11 / fast_pskip=0 / chroma_qp_offset=-3 / threads=3 / lookahead_threads=1 / sliced_threads=0 / nr=0 / decimate=0 / interlaced=0 / bluray_compat=0 / constrained_intra=0 / bframes=8 / b_pyramid=2 / b_adapt=2 / b_bias=0 / direct=3 / weightb=1 / open_gop=0 / weightp=2 / keyint=240 / keyint_min=23 / scenecut=40 / intra_refresh=0 / rc_lookahead=40 / rc=2pass / mbtree=0 / bitrate=2776 / ratetol=1.0 / qcomp=0.60 / qpmin=0 / qpmax=69 / qpstep=4 / cplxblur=20.0 / qblur=0.5 / vbv_maxrate=50000 / vbv_bufsize=50000 / nal_hrd=none / ip_ratio=1.40 / pb_ratio=1.30 / aq=1:1.00
Язык : English

Аудио #1
Идентификатор : 2
Формат : AC-3
Формат/Информация : Audio Coding 3
Расширение режима : CM (complete main)
Идентификатор кодека : A_AC3
Продолжительность : 1 ч. 42 м.
Вид битрейта : Постоянный
Битрейт : 384 Кбит/сек
Каналы : 6 каналов
Расположение каналов : Front: L C R, Side: L R, LFE
Частота : 48,0 КГц
Битовая глубина : 16 бит
Метод сжатия : С потерями
Размер потока : 282 Мбайт (7%)
Заголовок : Дублироованный AC3 5.1 384 kbps
Язык : Russian

Аудио #2
Идентификатор : 3
Формат : AC-3
Формат/Информация : Audio Coding 3
Расширение режима : CM (complete main)
Идентификатор кодека : A_AC3
Продолжительность : 1 ч. 42 м.
Вид битрейта : Постоянный
Битрейт : 384 Кбит/сек
Каналы : 6 каналов
Расположение каналов : Front: L C R, Side: L R, LFE
Частота : 48,0 КГц
Битовая глубина : 16 бит
Метод сжатия : С потерями
Размер потока : 282 Мбайт (7%)
Заголовок : Многоголосый закадровый [Superbit] AC3 5.1 384 kbps
Язык : Russian

Аудио #3
Идентификатор : 4
Формат : AC-3
Формат/Информация : Audio Coding 3
Расширение режима : CM (complete main)
Идентификатор кодека : A_AC3
Продолжительность : 1 ч. 42 м.
Вид битрейта : Постоянный
Битрейт : 192 Кбит/сек
Каналы : 2 канала
Расположение каналов : Front: L R
Частота : 48,0 КГц
Битовая глубина : 16 бит
Метод сжатия : С потерями
Размер потока : 141 Мбайт (3%)
Заголовок : Авторский [Алексей Михалев] AC3 2.0 192 kbps
Язык : Russian

Аудио #4
Идентификатор : 5
Формат : AC-3
Формат/Информация : Audio Coding 3
Расширение режима : CM (complete main)
Идентификатор кодека : A_AC3
Продолжительность : 1 ч. 42 м.
Вид битрейта : Постоянный
Битрейт : 384 Кбит/сек
Каналы : 6 каналов
Расположение каналов : Front: L C R, Side: L R, LFE
Частота : 48,0 КГц
Битовая глубина : 16 бит
Метод сжатия : С потерями
Размер потока : 282 Мбайт (7%)
Заголовок : AC3 5.1 384 kbps
Язык : English

Аудио #5
Идентификатор : 6
Формат : AC-3
Формат/Информация : Audio Coding 3
Расширение режима : CM (complete main)
Идентификатор кодека : A_AC3
Продолжительность : 1 ч. 42 м.
Вид битрейта : Постоянный
Битрейт : 384 Кбит/сек
Каналы : 6 каналов
Расположение каналов : Front: L C R, Side: L R, LFE
Частота : 48,0 КГц
Битовая глубина : 16 бит
Метод сжатия : С потерями
Размер потока : 282 Мбайт (7%)
Заголовок : Авторский [Владимир Королев] AC3 5.1 384 kbps
Язык : Russian

Аудио #6
Идентификатор : 7
Формат : AC-3
Формат/Информация : Audio Coding 3
Расширение режима : CM (complete main)
Идентификатор кодека : A_AC3
Продолжительность : 1 ч. 42 м.
Вид битрейта : Постоянный
Битрейт : 192 Кбит/сек
Каналы : 2 канала
Расположение каналов : Front: L R
Частота : 48,0 КГц
Битовая глубина : 16 бит
Метод сжатия : С потерями
Размер потока : 141 Мбайт (3%)
Заголовок : Авторский [Леонид Володарский] AC3 2.0 192 kbps
Язык : Russian

Аудио #7
Идентификатор : 8
Формат : AC-3
Формат/Информация : Audio Coding 3
Расширение режима : CM (complete main)
Идентификатор кодека : A_AC3
Продолжительность : 1 ч. 42 м.
Вид битрейта : Постоянный
Битрейт : 384 Кбит/сек
Каналы : 6 каналов
Расположение каналов : Front: L C R, Side: L R, LFE
Частота : 48,0 КГц
Битовая глубина : 16 бит
Метод сжатия : С потерями
Размер потока : 282 Мбайт (7%)
Заголовок : Авторский [Василий Горчаков] AC3 5.1 384 kbps
Язык : Russian

Аудио #8
Идентификатор : 9
Формат : AC-3
Формат/Информация : Audio Coding 3
Расширение режима : CM (complete main)
Идентификатор кодека : A_AC3
Продолжительность : 1 ч. 42 м.
Вид битрейта : Постоянный
Битрейт : 384 Кбит/сек
Каналы : 6 каналов
Расположение каналов : Front: L C R, Side: L R, LFE
Частота : 48,0 КГц
Битовая глубина : 16 бит
Метод сжатия : С потерями
Размер потока : 282 Мбайт (7%)
Заголовок : Авторский [Юрий Живов] AC3 5.1 384 kbps
Язык : Russian

Аудио #9
Идентификатор : 10
Формат : AC-3
Формат/Информация : Audio Coding 3
Расширение режима : CM (complete main)
Идентификатор кодека : A_AC3
Продолжительность : 1 ч. 42 м.
Вид битрейта : Постоянный
Битрейт : 192 Кбит/сек
Каналы : 2 канала
Расположение каналов : Front: L R
Частота : 48,0 КГц
Битовая глубина : 16 бит
Метод сжатия : С потерями
Размер потока : 141 Мбайт (3%)
Заголовок : Авторский [Юрий Толбин] AC3 2.0 192 kbps
Язык : Russian

Текст #1
Идентификатор : 11
Формат : UTF-8
Идентификатор кодека : S_TEXT/UTF8
Идентификатор кодека/Информация : UTF-8 Plain Text
Язык : Russian

Текст #2
Идентификатор : 12
Формат : UTF-8
Идентификатор кодека : S_TEXT/UTF8
Идентификатор кодека/Информация : UTF-8 Plain Text
Язык : English

Меню
00:00:00.000 : The Winner
00:02:29.316 : A Martial Artist's Responsibility
00:05:28.495 : Emotional Content
00:08:26.339 : Honk Kong Arrivals
00:10:40.640 : Background on Han
00:14:39.212 : Su Lin's Tragedy
00:20:16.215 : Roper: A Betting Man
00:25:08.340 : Williams on the Run
00:27:40.993 : Odds on Insects
00:31:34.059 : Parsons Takes a Ride
00:34:03.875 : Han's Hospitalit
00:39:00.171 : Fattened for the Kill?
00:41:53.678 : After-Hours Menu
00:45:21.052 : Morning Ritual
00:46:35.459 : "Let the Tournament Begin"
00:50:48.212 : Midnight Exploration
00:55:11.475 : Caught in the Act
00:57:56.306 : Punishment
01:00:36.132 : Lee vs. Oharra
01:05:27.924 : Willams vs. Han
01:09:00.303 : Roper's Limit
01:11:25.281 : Clear Understanding
01:16:01.056 : Radio Room Raid
01:20:09.972 : Cavern Combat
01:25:09.104 : Roper vs. Bolo
01:28:51.660 : Fighting Frenzy
01:31:37.158 : Lee vs. Han
01:35:14.542 : Reflection of Death
01:40:24.018 : Thumbs Up
Релиз от:



Скачать Выход.Дракона.Остров.Дракона.Enter.The.Dragon.(Роберт.Клауз).[1973.боевик.триллер.драма.криминал.BDRip-AVC].[Dub]+[MVO]+[AVO]x6+[Sub].torrent без регистрации
Золото ЗОЛОТАЯ РАЗДАЧА! СКАЧАННОЕ НЕ ЗАСЧИТЫВАЕТСЯ! Золото
Дата: Зарегистрирован   [ Тип: внутренний ] Как тут cкачать?
MAGNET ссылка
MAGNET ссылка


Скачать .torrent

11 KB

Статус: проверено DHT
Скачан: торрент - 188 раз, раздача полностью - 8 раз
Размер: 4,05 GB
Оценка:  5 (Голосов: 1)
Поблагодарили: 4
Поделиться ссылкой на эту раздачу с друзьями:
В контактеFacebookОдноклассникиTwitterLivejournalМой МирLiveinternet
 

 
Показать сообщения:    


Вы не можете начинать темы
Вы не можете отвечать на сообщения
Вы не можете редактировать свои сообщения
Вы не можете удалять свои сообщения
Вы не можете голосовать в опросах
Вы не можете прикреплять файлы к сообщениям
Вы можете скачивать файлы