Loading...
Error

Скачать Око за око / An Eye for an Eye (Стив Карвер) [1981, боевик, триллер, криминал, DVDRip-AVC] [MVO]+[AVO]x2 торрент без регистрации

 
Статистика раздачи
Размер:  1,46 GB   |    Скачан:  116 раз
Сидов:  1  [  0 KB/s  ]  
 
Автор Сообщение

Marsianka

[] 

Око за око / An Eye for an Eye

Страна: США
Жанр: боевик, триллер, криминал
Год выпуска: 1981
Продолжительность: 01:39:40
Перевод: Профессиональный (многоголосый закадровый), Авторский (одноголосый закадровый) - Гаврилов, Авторский (одноголосый закадровый) - Михалёв
Cубтитры: нет

Режиссер: Стив Карвер

В ролях: Чак Норрис, Кристофер Ли, Ричард Раундтри, Мэтт Кларк, Мако, Мэгги Купер, Розалинд Чао

Описание:
После гибели своего напарника полицейский из отдела по борьбе с наркотиками Шон Кейн вынужден уйти в отставку. Но когда убивают тележурналистку Линду, подругу его погибшего товарища, Кейн начинает собственное расследование. Он выясняет, что убийства имеют прямое отношение к тайным операциям с наркотиками, которые проводят гонконгские триады. Узнав, что в криминальном бизнесе замешаны и некоторые из его коллег-полицейских, Кейн берет правосудие в свои руки и решает сам, в одиночку, разобраться с преступниками...



Автор: big1987

Качество: DVDRip-AVC
Формат видео: MKV
Видео: 712x576 @ 1013x576, 1515 Kbps,
Аудио 1: AC3 2.0, 48 KHz, 192 кб/с - Многоголосный
Аудио 2: AC3 2.0, 48 KHz, 192 кб/с - Гаврилов
Аудио 3: AC3 2.0, 48 KHz, 192 кб/с - Михалёв
Format : Matroska
Format version : Version 2
File size : 1.46 GiB
Duration : 1h 39mn
Overall bit rate : 2 093 Kbps
Movie name : Око за Око [1981, DVDRip-AVC] || big1987
Encoded date : UTC 2011-11-16 02:41:51
Writing application : mkvmerge v5.0.1 ('Es ist Sommer') built on Oct 24 2011 19:45:06
Writing library : libebml v1.2.2 + libmatroska v1.3.0

Video
ID : 1
Format : AVC
Format/Info : Advanced Video Codec
Format profile : High@L3.1
Format settings, CABAC : Yes
Format settings, ReFrames : 6 frames
Codec ID : V_MPEG4/ISO/AVC
Duration : 1h 39mn
Bit rate : 1 515 Kbps
Width : 712 pixels
Height : 576 pixels
Display aspect ratio : 16:9
Original display aspect ratio : 16:9
Frame rate : 25.000 fps
Color space : YUV
Chroma subsampling : 4:2:0
Bit depth : 8 bits
Scan type : Progressive
Bits/(Pixel*Frame) : 0.148
Stream size : 1.03 GiB (70%)
Title : Око за Око [1981, DVDRip-AVC] || big1987
Writing library : x264 core 119 r2106 07efeb4
Encoding settings : cabac=1 / ref=6 / deblock=1:-3:-3 / analyse=0x3:0x133 / me=umh / subme=10 / psy=1 / psy_rd=1.00:0.20 / mixed_ref=1 / me_range=32 / chroma_me=1 / trellis=2 / 8x8dct=1 / cqm=0 / deadzone=21,11 / fast_pskip=1 / chroma_qp_offset=-3 / threads=6 / sliced_threads=0 / nr=0 / decimate=1 / interlaced=0 / bluray_compat=0 / constrained_intra=0 / bframes=4 / b_pyramid=2 / b_adapt=2 / b_bias=0 / direct=3 / weightb=1 / open_gop=0 / weightp=2 / keyint=250 / keyint_min=25 / scenecut=40 / intra_refresh=0 / rc_lookahead=60 / rc=2pass / mbtree=1 / bitrate=1515 / ratetol=1.0 / qcomp=0.60 / qpmin=0 / qpmax=69 / qpstep=4 / cplxblur=20.0 / qblur=0.5 / ip_ratio=1.40 / aq=1:1.00
Language : English

Audio #1
ID : 2
Format : AC-3
Format/Info : Audio Coding 3
Mode extension : CM (complete main)
Codec ID : A_AC3
Duration : 1h 39mn
Bit rate mode : Constant
Bit rate : 192 Kbps
Channel(s) : 2 channels
Channel positions : Front: L R
Sampling rate : 48.0 KHz
Bit depth : 16 bits
Compression mode : Lossy
Stream size : 137 MiB (9%)
Title : MVO [AC3 2.0@192kbps]
Language : Russian

Audio #2
ID : 3
Format : AC-3
Format/Info : Audio Coding 3
Mode extension : CM (complete main)
Codec ID : A_AC3
Duration : 1h 39mn
Bit rate mode : Constant
Bit rate : 192 Kbps
Channel(s) : 2 channels
Channel positions : Front: L R
Sampling rate : 48.0 KHz
Bit depth : 16 bits
Compression mode : Lossy
Stream size : 137 MiB (9%)
Title : AVO {Гаврилов} [AC3 2.0@192kbps]
Language : Russian

Audio #3
ID : 4
Format : AC-3
Format/Info : Audio Coding 3
Mode extension : CM (complete main)
Codec ID : A_AC3
Duration : 1h 39mn
Bit rate mode : Constant
Bit rate : 192 Kbps
Channel(s) : 2 channels
Channel positions : Front: L R
Sampling rate : 48.0 KHz
Bit depth : 16 bits
Compression mode : Lossy
Stream size : 137 MiB (9%)
Title : AVO {Михалёв} [AC3 2.0@192kbps]
Language : Russian



Скачать Око.за.око.An.Eye.for.an.Eye.(Стив.Карвер).[1981.боевик.триллер.криминал.DVDRip-AVC].[MVO]+[AVO]x2.torrent без регистрации
Золото ЗОЛОТАЯ РАЗДАЧА! СКАЧАННОЕ НЕ ЗАСЧИТЫВАЕТСЯ! Золото
Дата: Зарегистрирован   [ Тип: внутренний ] Как тут cкачать?
MAGNET ссылка
MAGNET ссылка


Скачать .torrent

15 KB

Статус: проверено DHT
Скачан: торрент - 116 раз, раздача полностью - 20 раз
Размер: 1,46 GB
Оценка:  - (Голосов: 0)
Поблагодарили: 1
Поделиться ссылкой на эту раздачу с друзьями:
В контактеFacebookОдноклассникиTwitterLivejournalМой МирLiveinternet
 

 
Показать сообщения:    


Вы не можете начинать темы
Вы не можете отвечать на сообщения
Вы не можете редактировать свои сообщения
Вы не можете удалять свои сообщения
Вы не можете голосовать в опросах
Вы не можете прикреплять файлы к сообщениям
Вы можете скачивать файлы