Loading...
Error

Скачать Место преступления: Нью-Йорк / CSI: NY (9х1-17 из 17) (Ann Donahue, Carol Mendelsohn, Anthony E. Zuiker) [2012-2013, криминал, драма, детектив, WEB-DLRip-AVC 400p] DVO (nikolas & verneta) + Original торрент без регистрации

 
Статистика раздачи
Размер:  10,15 GB   |    Скачан:  329 раз
Сидов:  1  [  0 KB/s  ]  
 
Автор Сообщение

МихаНЕзатор

[] 

CSI: Место преступления - Нью-Йорк / CSI: NY


Год выпуска: 2012-2013
Страна: США
Жанр: криминал, драма, детектив
Продолжительность: 00:44:30
Перевод: Любительский двухголосый закадровый (nikolas & verneta)
Русские субтитры: нет
Субтитры: отсутствуют
Режиссёр: Ann Donahue, Carol Mendelsohn, Anthony E. Zuiker

В ролях: Gary Sinise, Carmine Giovinazzo, Hill Harper, Eddie Cahill, Sela Ward, Anna Belknap, Robert Joy, A. J. Buckley и др.

Описание: Специалисты в области криминалистики раскрывают современными и высокотехнологичными методами запутанные преступления происходящие в крупном городе Нью-Йорк.

Сэмпл: Сэмпл

Качество: WEB-DLRip-AVC
Формат: MKV
Видео кодек: H.264
Аудио кодек: AC3
Видео: 720x400 (1.80:1), 23.976 fps, 1384 kbps, 0.200 bit/pixel
Аудио: 48 kHz, AC-3, 2 ch, ~192.00 kbps avg [русский, любительский двухголосый (nikolas & verneta)]
Аудио 2: 48 kHz, AC-3, 6 ch, ~384.00 kbps avg [английский]

31.05.2013 г. торент обновлён, добавлена 17-я серия, сезон полностью!
Общее
Уникальный идентификатор : 198989792089348331198766468475376071721 (0x95B40A38470AC5F89808F9BA4A8B7429)
Полное имя : CSI_NY_S09E01_WEB-DLRip.mkv
Формат : Matroska
Версия формата : Version 2
Размер файла : 686 Мбайт
Продолжительность : 44 м.
Общий поток : 2154 Кбит/сек
Дата кодирования : UTC 2012-10-10 13:06:21
Программа кодирования : mkvmerge v5.6.0 ('Kenya Kane') built on Jun 29 2012 15:01:44
Библиотека кодирования : libebml v1.2.3 + libmatroska v1.3.0
Видео
Идентификатор : 1
Формат : AVC
Формат/Информация : Advanced Video Codec
Профиль формата : High@L3.1
Параметр CABAC формата : Да
Параметр ReFrames формата : 16 кадров
Идентификатор кодека : V_MPEG4/ISO/AVC
Битрейт : 1384 Кбит/сек
Ширина : 720 пикселей
Высота : 400 пикселей
Соотношение сторон : 16:9
Режим частоты кадров : Переменный
Частота кадров в оригинале : 23,976 кадра/сек
Цветовое пространство : YUV
Субдискретизация насыщенности : 4:2:0
Битовая глубина : 8 бит
Тип развёртки : Прогрессивная
Бит/(Пиксели*Кадры) : 0.200
Библиотека кодирования : x264 core 125 r2200 999b753
Настройки программы : cabac=1 / ref=16 / deblock=1:0:0 / analyse=0x3:0x133 / me=umh / subme=10 / psy=1 / psy_rd=1.00:0.00 / mixed_ref=1 / me_range=24 / chroma_me=1 / trellis=2 / 8x8dct=1 / cqm=0 / deadzone=21,11 / fast_pskip=1 / chroma_qp_offset=-2 / threads=12 / lookahead_threads=2 / sliced_threads=0 / nr=0 / decimate=1 / interlaced=0 / bluray_compat=0 / constrained_intra=0 / bframes=8 / b_pyramid=2 / b_adapt=2 / b_bias=0 / direct=3 / weightb=1 / open_gop=0 / weightp=2 / keyint=250 / keyint_min=23 / scenecut=40 / intra_refresh=0 / rc_lookahead=60 / rc=2pass / mbtree=1 / bitrate=1384 / ratetol=1.0 / qcomp=0.60 / qpmin=0 / qpmax=69 / qpstep=4 / cplxblur=20.0 / qblur=0.5 / vbv_maxrate=17500 / vbv_bufsize=14000 / nal_hrd=none / ip_ratio=1.40 / aq=1:1.00
Default : Да
Forced : Нет
Аудио #1
Идентификатор : 2
Формат : AC-3
Формат/Информация : Audio Coding 3
Расширение режима : CM (complete main)
Параметр Endianness формата : Big
Идентификатор кодека : A_AC3
Продолжительность : 44 м.
Вид битрейта : Постоянный
Битрейт : 384 Кбит/сек
Каналы : 2 канала
Расположение каналов : Front: L R
Частота : 48,0 КГц
Битовая глубина : 16 бит
Метод сжатия : С потерями
Размер потока : 122 Мбайт (18%)
Default : Да
Forced : Нет
Аудио #2
Идентификатор : 3
Формат : AC-3
Формат/Информация : Audio Coding 3
Расширение режима : CM (complete main)
Параметр Endianness формата : Big
Идентификатор кодека : A_AC3
Продолжительность : 44 м.
Вид битрейта : Постоянный
Битрейт : 384 Кбит/сек
Каналы : 6 каналов
Расположение каналов : Front: L C R, Side: L R, LFE
Частота : 48,0 КГц
Битовая глубина : 16 бит
Метод сжатия : С потерями
Размер потока : 122 Мбайт (18%)
Default : Нет
Forced : Нет
При каждом добавлении создётся новый торрент. Чтобы начать докачку новой серии, пользователям необходимо сделать следующее:
(1) остановить скачивание,
(2) удалить старый торрент у себя из клиента (старые серии удалять не надо),
(3) скачать новый торрент и запустить его у себя в клиенте вместо старого, при этом указать клиенту путь в старую папку куда и должно происходить скачивание новых серий.
Ваш клиент при этом должен произвести хеширование (проверку) старой папки (если не производит сам - помогите ему сделать это), и будет докачивать только те серии которых у вас ещё нет. Старые серии при этом не удаляются, а продолжают раздаваться!
Eсли вы уже удалили старые серии, то предотвратить повторную закачку старых серий можно, отжав галочку в соответсвующих местах при запуске нового торрента.



Скачать Место.преступления.Нью-Йорк.CSI.NY.(9х1-17.из.17).(Ann.Donahue.Carol.Mendelsohn.Anthony.E.Zuiker).[2012-2013.криминал.драма.детектив.WEB-DLRip-AVC.400p].DVO.(nikolas.&.verneta).+.Original.torrent без регистрации
Золото ЗОЛОТАЯ РАЗДАЧА! СКАЧАННОЕ НЕ ЗАСЧИТЫВАЕТСЯ! Золото
Дата: Зарегистрирован   [ Тип: внутренний ] Как тут cкачать?
MAGNET ссылка
MAGNET ссылка


Скачать .torrent

52 KB

Статус: проверено DHT
Скачан: торрент - 329 раз, раздача полностью - 24 раз
Размер: 10,15 GB
Оценка:  - (Голосов: 0)
Поблагодарили: 2
Поделиться ссылкой на эту раздачу с друзьями:
В контактеFacebookОдноклассникиTwitterLivejournalМой МирLiveinternet
 

 

МихаНЕзатор

[] 

Раздача обновлена
 
Показать сообщения:    


Вы не можете начинать темы
Вы не можете отвечать на сообщения
Вы не можете редактировать свои сообщения
Вы не можете удалять свои сообщения
Вы не можете голосовать в опросах
Вы не можете прикреплять файлы к сообщениям
Вы можете скачивать файлы