Loading...
Error

Скачать Вампирша / Rise: Blood Hunter (Себастьян Гутьеррес) [2007, ужасы, боевик, триллер, детектив, BDRip-AVC] [Dub]+[DVO]+[Sub] торрент без регистрации

 
Статистика раздачи
Размер:  2,1 GB   |    Скачан:  111 раз
Сидов:  1  [  0 KB/s  ]  
 
Автор Сообщение

Marsianka

[] 

Информация о фильме
Название: Вампирша
Оригинальное название: Rise: Blood Hunter
Год выхода: 2007
Жанр: ужасы, боевик, триллер, детектив
Режиссер: Себастьян Гутьеррес
В ролях: Люси Лью, Роберт Форстер, Кэмерон Ричардсон, Карла Гуджино, Майкл Чиклис, Холт МакКэллэни, Джеймс Д'Арси, Хулио Оскар Мекозо, Аллан Рич, Марго Харшман, Кэмерон Гудман, Пол Кэсселл, Мако, Саманта Шелтон, Кевин Уитли, Натсуко Охама, Лиана Перес, Самира Армстронг, Элден Хенсон, Ник Лэйчи, Кристофер Аллен Нельсон, Мэрилин Мэнсон

О фильме:
Молодая журналистка Сэди пытается выяснить, почему в их городе случаются странные и страшные кровавые убийства. Вампиры, которые являются прямыми участниками этих убийств, решают, что она слишком глубоко засунула свой нос в их дела. Поймав девушку, они кусают ее Ночью Сэди просыпается в морге и обнаруживает на шее следы укусов. Понимая, что стала вампиршей, она клянется отомстить тем, кто превратил ее в кровопийцу, и пускается по следу упырей, пересекаясь с детективом Роулинсом, чья дочь была убита той же бандой.



Страна: США, Новая Зеландия
Студия: Mandate Pictures, Kingsgate Films, Destination Films
Продолжительность: 01:33:35
Перевод: Дублированный, любительский (двухголосый закадровый)

Файл
Кодек: h.264
Качество: BDRip-AVC
Видео: 2254 Кбит/с, 1024x576, 25.000 кадр/с
1: Русский (AC3, 6 ch, 384 Кбит/с) / Дублированный
2: Русский (AC3, 2 ch, 192 Кбит/с) / Любительский двухголосый [Интерфильм]
3: Английский (AC3, 6 ch, 384 Кбит/с)

Субтитры: Русские, английские

Полное имя : Vampirsha.2007.x264.BDRip.(AVC).0ptimus.mkv
Формат : Matroska
Версия формата : Version 4 / Version 2
Размер файла : 2,10 Гбайт
Продолжительность : 1 ч. 33 м.
Общий поток : 3213 Кбит/сек
Название фильма : Вампирша | Rise: Blood Hunter [2007] -=BDRip (AVC) by 0ptimus=-
Дата кодирования : UTC 2013-06-19 15:17:42
Программа кодирования : mkvmerge v6.1.0 ('Old Devil') built on Mar 2 2013 14:32:37
Библиотека кодирования : libebml v1.3.0 + libmatroska v1.4.0

Видео
Идентификатор : 1
Формат : AVC
Формат/Информация : Advanced Video Codec
Профиль формата : High@L4.1
Параметр CABAC формата : Да
Параметр ReFrames формата : 4 кадра
Идентификатор кодека : V_MPEG4/ISO/AVC
Продолжительность : 1 ч. 33 м.
Битрейт : 2254 Кбит/сек
Ширина : 1024 пикселя
Высота : 576 пикселей
Соотношение сторон : 16:9
Частота кадров : 25,000 кадров/сек
Цветовое пространство : YUV
Субдискретизация насыщенности : 4:2:0
Битовая глубина : 8 бит
Тип развёртки : Прогрессивная
Бит/(Пиксели*Кадры) : 0.153
Размер потока : 1,43 Гбайт (68%)
Заголовок : Rip by 0ptimus
Библиотека кодирования : x264 core 132 r2310 76a5c3a
Настройки программы : cabac=1 / ref=4 / deblock=1:-3:-3 / analyse=0x3:0x113 / me=umh / subme=11 / psy=1 / psy_rd=1.00:0.20 / mixed_ref=1 / me_range=32 / chroma_me=1 / trellis=2 / 8x8dct=1 / cqm=0 / deadzone=21,11 / fast_pskip=0 / chroma_qp_offset=-3 / threads=4 / lookahead_threads=1 / sliced_threads=0 / nr=0 / decimate=0 / interlaced=0 / bluray_compat=0 / constrained_intra=0 / bframes=9 / b_pyramid=2 / b_adapt=2 / b_bias=0 / direct=3 / weightb=1 / open_gop=0 / weightp=2 / keyint=250 / keyint_min=25 / scenecut=40 / intra_refresh=0 / rc_lookahead=40 / rc=2pass / mbtree=0 / bitrate=2254 / ratetol=1.0 / qcomp=0.60 / qpmin=0 / qpmax=69 / qpstep=4 / cplxblur=20.0 / qblur=0.5 / vbv_maxrate=50000 / vbv_bufsize=62500 / nal_hrd=none / ip_ratio=1.40 / pb_ratio=1.30 / aq=1:1.00
Язык : English

Аудио #1
Идентификатор : 2
Формат : AC-3
Формат/Информация : Audio Coding 3
Расширение режима : CM (complete main)
Идентификатор кодека : A_AC3
Продолжительность : 1 ч. 33 м.
Вид битрейта : Постоянный
Битрейт : 384 Кбит/сек
Каналы : 6 каналов
Расположение каналов : Front: L C R, Side: L R, LFE
Частота : 48,0 КГц
Битовая глубина : 16 бит
Метод сжатия : С потерями
Размер потока : 257 Мбайт (12%)
Заголовок : Дублированный AC3 5.1 384 kbps
Язык : Russian

Аудио #2
Идентификатор : 3
Формат : AC-3
Формат/Информация : Audio Coding 3
Расширение режима : CM (complete main)
Идентификатор кодека : A_AC3
Продолжительность : 1 ч. 33 м.
Вид битрейта : Постоянный
Битрейт : 192 Кбит/сек
Каналы : 2 канала
Расположение каналов : Front: L R
Частота : 48,0 КГц
Битовая глубина : 16 бит
Метод сжатия : С потерями
Размер потока : 129 Мбайт (6%)
Заголовок : Любительский двухголосый [Интерфильм] AC3 2.0 384 kbps
Язык : Russian

Аудио #3
Идентификатор : 4
Формат : AC-3
Формат/Информация : Audio Coding 3
Расширение режима : CM (complete main)
Идентификатор кодека : A_AC3
Продолжительность : 1 ч. 33 м.
Вид битрейта : Постоянный
Битрейт : 384 Кбит/сек
Каналы : 6 каналов
Расположение каналов : Front: L C R, Side: L R, LFE
Частота : 48,0 КГц
Битовая глубина : 16 бит
Метод сжатия : С потерями
Размер потока : 257 Мбайт (12%)
Заголовок : AC3 5.1 384 kbps
Язык : English

Текст #1
Идентификатор : 5
Формат : UTF-8
Идентификатор кодека : S_TEXT/UTF8
Идентификатор кодека/Информация : UTF-8 Plain Text
Язык : Russian

Текст #2
Идентификатор : 6
Формат : UTF-8
Идентификатор кодека : S_TEXT/UTF8
Идентификатор кодека/Информация : UTF-8 Plain Text
Язык : English

Меню
00:00:00.000 : :Chapter 01
00:07:38.320 : :Chapter 02
00:14:07.120 : :Chapter 03
00:19:15.760 : :Chapter 04
00:24:58.600 : :Chapter 05
00:32:13.360 : :Chapter 06
00:36:06.840 : :Chapter 07
00:42:11.440 : :Chapter 08
00:48:59.960 : :Chapter 09
00:55:54.480 : :Chapter 10
01:01:07.640 : :Chapter 11
01:04:52.200 : :Chapter 12
01:10:10.720 : :Chapter 13
01:14:34.600 : :Chapter 14
01:20:36.480 : :Chapter 15
01:29:17.520 : :Chapter 16
Релиз от:



Скачать Вампирша.Rise.Blood.Hunter.(Себастьян.Гутьеррес).[2007.ужасы.боевик.триллер.детектив.BDRip-AVC].[Dub]+[DVO]+[Sub].torrent без регистрации
Золото ЗОЛОТАЯ РАЗДАЧА! СКАЧАННОЕ НЕ ЗАСЧИТЫВАЕТСЯ! Золото
Дата: Зарегистрирован   [ Тип: внутренний ] Как тут cкачать?
MAGNET ссылка
MAGNET ссылка


Скачать .torrent

11 KB

Статус: проверено DHT
Скачан: торрент - 111 раз, раздача полностью - 29 раз
Размер: 2,1 GB
Оценка:  - (Голосов: 0)
Поблагодарили: 2
Поделиться ссылкой на эту раздачу с друзьями:
В контактеFacebookОдноклассникиTwitterLivejournalМой МирLiveinternet
 

 
Показать сообщения:    


Вы не можете начинать темы
Вы не можете отвечать на сообщения
Вы не можете редактировать свои сообщения
Вы не можете удалять свои сообщения
Вы не можете голосовать в опросах
Вы не можете прикреплять файлы к сообщениям
Вы можете скачивать файлы