Loading...
Error

Скачать Абсолютно точно / Верняк / The Sure Thing (Роб Райнер) [1985, комедия, мелодрама, драма, приключения, BDRip-AVC] [DVO]+[VO]+[Оригинал]+[Sub] торрент без регистрации

 
Статистика раздачи
Размер:  2,07 GB   |    Скачан:  107 раз
Сидов:  1  [  0 KB/s  ]  
 
Автор Сообщение

Marsianka

[] 

Информация о фильме
Название: Абсолютно точно / Верняк
Оригинальное название: The Sure Thing
Год выхода: 1985
Жанр: комедия, мелодрама, драма, приключения
Режиссер: Роб Райнер
В ролях: Джон Кьюсак, Дафна Зунига, Энтони Эдвардс, Бойд Гейнс, Тим Роббинс, Лиза Джейн Перски, Вивека Линдфорс, Николлетт Шеридан, Марсия Кристи, Роберт Энтони Маркуччи, Сара Бакстон, Джошуа Кэдмен, Кристал Ричардс, Джон Путч, Стив Пинк, Трэйси Рейнер, Мартин Дж. Лэйтон, Эми Резник

О фильме:
Гиб симпатичный, умный интересный парень с хорошим чувством юмора, но в любви ему не везет. Почему-то девушки, которые учатся с Гибом на первом курсе колледжа, не воспринимают парня всерьёз. На зимние каникулы Гиб собирается поехать к своему другу в Калифорнию, наслушавшись рассказов приятеля о красотке в бикини, так и поджидающей Гиба на берегу. «Она то, что тебе надо!» Гибу нравится перспектива встречи с такой девушкой, и он отправляется в путь. Неожиданной попутчицей оказывается немного занудная сокурсница-отличница Элисон, которая едет в том же направлении, чтобы повидаться со своим женихом. Элисон и Гиб две противоположности, которые, как это часто бывает, в пути начинают притягиваться с самыми романтическими последствиями! Дождётся ли красотка в бикини Гиба? Дождется ли жених свою Элисон? Вот в чём вопрос.



Страна: США
Студия: Embassy Films, Monument Pictures
Продолжительность: 01:31:07
Перевод: Профессиональный (двухголосый закадровый), любительский (одноголосый закадровый)

Файл
Кодек: h.264
Качество: BDRip-AVC
Видео: 2484 Кбит/с, 1024x576, 25.000 кадр/с
1: Русский (AC3, 2 ch, 192 Кбит/с) / Двухголосый закадровый [Elrom]
2: Русский (AC3, 2 ch, 192 Кбит/с) / Любительский одноголосый [Антон Алексеев]
3: Английский (AC3, 6 ch, 384 Кбит/с)

Субтитры: Русские, английские

Полное имя : Vernyak.1985.x264.BDRip.(AVC).0ptimus.mkv
Формат : Matroska
Версия формата : Version 4 / Version 2
Размер файла : 2,07 Гбайт
Продолжительность : 1 ч. 31 м.
Общий поток : 3253 Кбит/сек
Название фильма : Абсолютно точно (Верняк) | The Sure Thing [1985] -=BDRip (AVC) by 0ptimus=-
Дата кодирования : UTC 2013-06-19 14:35:42
Программа кодирования : mkvmerge v6.1.0 ('Old Devil') built on Mar 2 2013 14:32:37
Библиотека кодирования : libebml v1.3.0 + libmatroska v1.4.0

Видео
Идентификатор : 1
Формат : AVC
Формат/Информация : Advanced Video Codec
Профиль формата : High@L4.1
Параметр CABAC формата : Да
Параметр ReFrames формата : 10 кадров
Идентификатор кодека : V_MPEG4/ISO/AVC
Продолжительность : 1 ч. 31 м.
Битрейт : 2484 Кбит/сек
Ширина : 1024 пикселя
Высота : 576 пикселей
Соотношение сторон : 16:9
Частота кадров : 25,000 кадров/сек
Цветовое пространство : YUV
Субдискретизация насыщенности : 4:2:0
Битовая глубина : 8 бит
Тип развёртки : Прогрессивная
Бит/(Пиксели*Кадры) : 0.168
Размер потока : 1,54 Гбайт (74%)
Библиотека кодирования : x264 core 133 r2334 a3ac64b
Настройки программы : cabac=1 / ref=10 / deblock=1:-3:-3 / analyse=0x3:0x113 / me=umh / subme=10 / psy=1 / psy_rd=1.00:0.20 / mixed_ref=1 / me_range=32 / chroma_me=1 / trellis=2 / 8x8dct=1 / cqm=0 / deadzone=21,11 / fast_pskip=0 / chroma_qp_offset=-3 / threads=3 / lookahead_threads=1 / sliced_threads=0 / nr=0 / decimate=0 / interlaced=0 / bluray_compat=0 / constrained_intra=0 / bframes=8 / b_pyramid=2 / b_adapt=2 / b_bias=0 / direct=3 / weightb=1 / open_gop=0 / weightp=2 / keyint=250 / keyint_min=25 / scenecut=40 / intra_refresh=0 / rc_lookahead=40 / rc=2pass / mbtree=0 / bitrate=2484 / ratetol=1.0 / qcomp=0.60 / qpmin=0 / qpmax=69 / qpstep=4 / cplxblur=20.0 / qblur=0.5 / vbv_maxrate=50000 / vbv_bufsize=50000 / nal_hrd=none / ip_ratio=1.40 / pb_ratio=1.30 / aq=1:1.00
Язык : English

Аудио #1
Идентификатор : 2
Формат : AC-3
Формат/Информация : Audio Coding 3
Расширение режима : CM (complete main)
Идентификатор кодека : A_AC3
Продолжительность : 1 ч. 31 м.
Вид битрейта : Постоянный
Битрейт : 192 Кбит/сек
Каналы : 2 канала
Расположение каналов : Front: L R
Частота : 48,0 КГц
Битовая глубина : 16 бит
Метод сжатия : С потерями
Размер потока : 125 Мбайт (6%)
Заголовок : Двухголосый закадровый [Elrom] AC3 2.0 192 kbps
Язык : Russian

Аудио #2
Идентификатор : 3
Формат : AC-3
Формат/Информация : Audio Coding 3
Расширение режима : CM (complete main)
Идентификатор кодека : A_AC3
Продолжительность : 1 ч. 31 м.
Вид битрейта : Постоянный
Битрейт : 192 Кбит/сек
Каналы : 2 канала
Расположение каналов : Front: L R
Частота : 48,0 КГц
Битовая глубина : 16 бит
Метод сжатия : С потерями
Размер потока : 125 Мбайт (6%)
Заголовок : Одноголосый закадровый [Антон Алексеев] AC3 2.0 192 kbps
Язык : Russian

Аудио #3
Идентификатор : 4
Формат : AC-3
Формат/Информация : Audio Coding 3
Расширение режима : CM (complete main)
Идентификатор кодека : A_AC3
Продолжительность : 1 ч. 31 м.
Вид битрейта : Постоянный
Битрейт : 384 Кбит/сек
Каналы : 6 каналов
Расположение каналов : Front: L C R, Side: L R, LFE
Частота : 48,0 КГц
Битовая глубина : 16 бит
Метод сжатия : С потерями
Размер потока : 250 Мбайт (12%)
Заголовок : AC3 5.1 384 kbps
Язык : English

Текст #1
Идентификатор : 5
Формат : UTF-8
Идентификатор кодека : S_TEXT/UTF8
Идентификатор кодека/Информация : UTF-8 Plain Text
Язык : Russian

Текст #2
Идентификатор : 6
Формат : UTF-8
Идентификатор кодека : S_TEXT/UTF8
Идентификатор кодека/Информация : UTF-8 Plain Text
Заголовок : Rip by 0ptimus
Язык : English

Меню
00:00:00.000 : en:00:00:00.000
00:08:50.440 : en:00:08:50.440
00:18:10.880 : en:00:18:10.880
00:27:25.880 : en:00:27:25.880
00:37:27.079 : en:00:37:27.079
00:47:22.360 : en:00:47:22.360
00:55:45.920 : en:00:55:45.920
01:04:34.000 : en:01:04:34.000
01:12:52.760 : en:01:12:52.760
01:21:36.399 : en:01:21:36.399
01:28:13.198 : en:01:28:13.198

--------------------------------------------------------
x264 [info]: frame I:988 Avg QP:16.46 size: 67496
x264 [info]: frame P:26800 Avg QP:19.14 size: 24761
x264 [info]: frame B:108898 Avg QP:20.56 size: 8872
--------------------------------------------------------
Релиз от:



Скачать Абсолютно.точно.Верняк.The.Sure.Thing.(Роб.Райнер).[1985.комедия.мелодрама.драма.приключения.BDRip-AVC].[DVO]+[VO]+[Оригинал]+[Sub].torrent без регистрации
Золото ЗОЛОТАЯ РАЗДАЧА! СКАЧАННОЕ НЕ ЗАСЧИТЫВАЕТСЯ! Золото
Дата: Зарегистрирован   [ Тип: внутренний ] Как тут cкачать?
MAGNET ссылка
MAGNET ссылка


Скачать .torrent

11 KB

Статус: проверено DHT
Скачан: торрент - 107 раз, раздача полностью - 6 раз
Размер: 2,07 GB
Оценка:  - (Голосов: 0)
Поблагодарили: 3
Поделиться ссылкой на эту раздачу с друзьями:
В контактеFacebookОдноклассникиTwitterLivejournalМой МирLiveinternet
 

 
Показать сообщения:    


Вы не можете начинать темы
Вы не можете отвечать на сообщения
Вы не можете редактировать свои сообщения
Вы не можете удалять свои сообщения
Вы не можете голосовать в опросах
Вы не можете прикреплять файлы к сообщениям
Вы можете скачивать файлы